<?xml version="1.0" standalone="no"?>
<!DOCTYPE svg PUBLIC "-//W3C//DTD SVG 1.1//EN" "http://www.w3.org/Graphics/SVG/1.1/DTD/svg11.dtd" >
<svg xmlns="http://www.w3.org/2000/svg" xmlns:xlink="http://www.w3.org/1999/xlink" version="1.1">
<metadata></metadata>
<defs>
<font id="poppins_latinmedium" horiz-adv-x="1388" >
<font-face units-per-em="2048" ascent="1741" descent="-307" />
<missing-glyph horiz-adv-x="532" />
<glyph horiz-adv-x="0" />
<glyph horiz-adv-x="682" />
<glyph horiz-adv-x="0" />
<glyph horiz-adv-x="0" />
<glyph unicode="&#xd;" horiz-adv-x="532" />
<glyph unicode=" "  horiz-adv-x="532" />
<glyph unicode="&#x09;" horiz-adv-x="532" />
<glyph unicode="&#xa0;" horiz-adv-x="532" />
<glyph unicode="!" horiz-adv-x="657" d="M180 135q0 63 43.5 106.5t106.5 43.5q62 0 104.5 -43.5t42.5 -106.5t-42.5 -106t-104.5 -43q-63 0 -106.5 43t-43.5 106zM199 1423h247l-26 -993h-195z" />
<glyph unicode="&#x22;" horiz-adv-x="661" d="M70 1632h211l-25 -420h-160zM379 1632h211l-25 -420h-159z" />
<glyph unicode="#" horiz-adv-x="1785" d="M63 379v205h361l76 354h-316v205h359l80 373h223l-80 -373h401l80 373h223l-79 -373h272v-205h-315l-76 -354h270v-205h-313l-82 -379h-223l82 379h-402l-82 -379h-223l82 379h-318zM647 584h402l75 354h-401z" />
<glyph unicode="$" horiz-adv-x="1331" d="M123 379h250q6 -79 51 -131.5t129 -67.5v451q-82 20 -126 33t-111.5 45t-102.5 69.5t-62.5 102t-27.5 147.5q0 170 118.5 281.5t311.5 128.5v168h133v-166q181 -15 291 -113t123 -268h-250q-6 64 -49.5 114t-114.5 68v-442q82 -20 126 -32.5t111 -43.5t102 -68t62 -101.5 t27 -147.5q0 -157 -115 -277.5t-313 -138.5v-168h-133v166q-194 18 -312 120t-118 271zM360 1040q0 -83 50 -130t143 -76v413q-88 -11 -140.5 -63.5t-52.5 -143.5zM686 180q90 15 141.5 73.5t51.5 139.5q0 82 -50 128t-143 75v-416z" />
<glyph unicode="%" horiz-adv-x="1626" d="M86 1133q0 149 87 234t224 85t224.5 -85t87.5 -234q0 -150 -87.5 -236t-224.5 -86t-224 86t-87 236zM268 1133q0 -181 129 -181t129 181q0 178 -129 178t-129 -178zM289 0l817 1425h229l-817 -1425h-229zM920 295q0 150 86.5 234.5t224.5 84.5q136 0 222.5 -84.5 t86.5 -234.5t-86.5 -236t-222.5 -86q-137 0 -224 86t-87 236zM1100 295q0 -178 129 -178t129 178t-129 178t-129 -178z" />
<glyph unicode="&#x26;" horiz-adv-x="1558" d="M72 410q0 148 84 263t250 183q-59 71 -84 133.5t-25 138.5q0 143 107.5 235.5t287.5 92.5q181 0 279.5 -99.5t87.5 -250.5h-234q3 76 -36 118t-107 42t-110 -40t-42 -98q0 -56 32 -109t112 -140l377 -375l145 239h252l-184 -315q-9 -16 -27.5 -45t-24.5 -39l347 -344 h-306l-176 176q-203 -203 -493 -203q-231 0 -371.5 119t-140.5 318zM305 418q0 -105 77.5 -175.5t201.5 -70.5q191 0 340 158l-377 379q-242 -96 -242 -291z" />
<glyph unicode="'" horiz-adv-x="352" d="M70 1632h211l-25 -420h-160z" />
<glyph unicode="(" horiz-adv-x="1007" d="M254 745q0 228 48.5 439.5t153 403t255.5 325.5h241v-23q-159 -146 -267.5 -340t-157 -395t-48.5 -410q0 -310 110.5 -598t321.5 -505v-23h-241q-200 193 -308 490t-108 636z" />
<glyph unicode=")" horiz-adv-x="1007" d="M55 1890q159 -146 267.5 -340t157 -395t48.5 -410q0 -310 -110.5 -598t-321.5 -505v-23h242q200 193 308 490t108 636q0 228 -48.5 439.5t-153 403t-255.5 325.5h-242v-23z" />
<glyph unicode="*" horiz-adv-x="1032" d="M129 1020l279 104l-279 101l94 168l240 -185l-41 299h190l-45 -299l236 183l92 -164l-281 -105l281 -104l-94 -168l-234 184l43 -297h-188l39 297l-234 -188z" />
<glyph unicode="+" horiz-adv-x="1462" d="M209 641v197h414v424h217v-424h413v-197h-413v-424h-217v424h-414z" />
<glyph unicode="," horiz-adv-x="460" d="M10 -285l146 566h254l-248 -566h-152z" />
<glyph unicode="-" horiz-adv-x="1198" d="M178 643v197h842v-197h-842z" />
<glyph unicode="." horiz-adv-x="493" d="M98 135q0 63 43.5 106.5t106.5 43.5q62 0 104.5 -43.5t42.5 -106.5t-42.5 -106t-104.5 -43q-63 0 -106.5 43t-43.5 106z" />
<glyph unicode="/" horiz-adv-x="1052" d="M125 -358l555 2291h231l-557 -2291h-229z" />
<glyph unicode="0" horiz-adv-x="1312" d="M123 766q0 134 15 242.5t52.5 206t96.5 163.5t152.5 104t215.5 38t215.5 -38t153 -104t97 -163.5t52.5 -206t15 -242.5q0 -136 -15 -246.5t-52.5 -208.5t-97 -164t-153 -104.5t-215.5 -38.5t-215.5 38.5t-153 104.5t-96.5 164t-52 208t-15 247zM352 766q0 -82 3.5 -143.5 t14 -128.5t32 -113.5t54 -85.5t83 -58.5t116.5 -19.5t116.5 19.5t83 58.5t54 85.5t32 113.5t14 128.5t3.5 143.5q0 66 -2.5 118t-10 110.5t-21 102t-36.5 85t-54 67.5t-76.5 42t-102.5 16t-102.5 -16t-76.5 -42t-54 -67.5t-36.5 -85t-21 -102t-10 -110.5t-2.5 -118z" />
<glyph unicode="1" horiz-adv-x="716" d="M92 1280v213h426v-1493h-235v1280h-191z" />
<glyph unicode="2" horiz-adv-x="1181" d="M102 1042q3 118 41.5 211.5t104 151.5t151 88.5t185.5 30.5q224 0 349.5 -123t125.5 -328q0 -66 -17.5 -133t-42.5 -122t-70 -118.5t-82.5 -108t-98.5 -105t-99.5 -95t-104 -92.5t-93.5 -84h649v-195h-996v170q48 42 131 113t132 113.5t119.5 107.5t112.5 109.5t91 104.5 t75 109.5t44 105.5t18 110q0 262 -241 262q-120 0 -186.5 -76.5t-71.5 -206.5h-226z" />
<glyph unicode="3" horiz-adv-x="1216" d="M98 432h226q8 -108 84 -177t204 -69q126 0 193 68.5t67 177.5q0 143 -90.5 203.5t-279.5 60.5h-53v193h55q165 2 252.5 54.5t87.5 168.5q0 99 -63 157t-181 58q-115 0 -178.5 -58.5t-75.5 -144.5h-227q12 190 146.5 297t342.5 107q216 0 337.5 -110t121.5 -279 q0 -126 -67 -216t-162 -122v-8q120 -36 188 -133.5t68 -249.5q0 -185 -126.5 -301.5t-353.5 -116.5q-221 0 -363.5 114t-152.5 326z" />
<glyph unicode="4" horiz-adv-x="1325" d="M94 311v176l688 988h283v-961h190v-203h-190v-311h-229v311h-742zM362 514h484v723z" />
<glyph unicode="5" horiz-adv-x="1308" d="M152 403h227q24 -97 101 -152.5t194 -55.5q145 0 218 88t73 233q0 148 -73 226.5t-218 78.5q-100 0 -169 -50t-99 -136h-222v862h901v-205h-686v-407q43 58 128 96.5t182 38.5q106 0 190.5 -30.5t137.5 -79.5t88 -115.5t49 -134t14 -138.5q0 -113 -32.5 -207t-95.5 -165 t-162 -110.5t-226 -39.5q-223 0 -358 110.5t-162 292.5z" />
<glyph unicode="6" horiz-adv-x="1314" d="M152 780q0 750 528 750q105 0 190.5 -31.5t140.5 -86t87.5 -121.5t42.5 -144h-215q-22 94 -81.5 141t-166.5 47q-163 0 -242.5 -124t-83.5 -410q54 90 155.5 139t221.5 49q205 0 332 -131t127 -360q0 -220 -129 -359t-361 -139q-128 0 -223.5 36.5t-156.5 100.5 t-98.5 164t-52.5 215t-15 264zM379 502q0 -141 80 -224t227 -83q128 0 203.5 79.5t75.5 212.5q0 140 -72.5 223t-214.5 83q-125 0 -212 -75t-87 -216z" />
<glyph unicode="7" horiz-adv-x="1146" d="M82 1288v199h987v-174l-569 -1313h-236l576 1288h-758z" />
<glyph unicode="8" horiz-adv-x="1306" d="M125 412q0 132 67.5 229t182.5 139q-213 106 -213 336q0 83 31 155t90 128t154.5 88.5t215.5 32.5t215.5 -32.5t155 -89t90.5 -128.5t31 -154q0 -115 -58.5 -202t-154.5 -134q116 -44 184 -140.5t68 -227.5q0 -202 -148.5 -325.5t-382.5 -123.5q-233 0 -380.5 123.5 t-147.5 325.5zM348 420q0 -116 82.5 -189t222.5 -73q138 0 219.5 73.5t81.5 188.5q0 123 -82.5 190.5t-218.5 67.5q-135 0 -220 -66t-85 -192zM387 1085q0 -101 74.5 -166t191.5 -65t193 66t76 167q0 114 -72 176t-197 62q-123 0 -194.5 -62t-71.5 -178z" />
<glyph unicode="9" horiz-adv-x="1300" d="M158 1034q0 226 131.5 360t363.5 134q143 0 242.5 -48t159 -146.5t86 -234.5t26.5 -325q0 -157 -14 -274.5t-48.5 -214.5t-91 -157.5t-142 -93t-201.5 -32.5q-112 0 -200.5 33t-144.5 90t-87.5 128t-38.5 153h215q42 -209 270 -209q96 0 156 46t92.5 158.5t32.5 300.5 q-50 -69 -139 -107t-193 -38q-99 0 -185 31t-151 89t-102 150t-37 207zM381 1040q0 -125 73 -205.5t220 -80.5q123 0 193.5 76.5t70.5 203.5q0 141 -75 220t-204 79t-203.5 -81t-74.5 -212z" />
<glyph unicode=":" horiz-adv-x="501" d="M98 135q0 63 43.5 106.5t106.5 43.5q62 0 104.5 -43.5t42.5 -106.5t-42.5 -106t-104.5 -43q-63 0 -106.5 43t-43.5 106zM98 995q0 63 43.5 106.5t106.5 43.5q62 0 104.5 -43.5t42.5 -106.5t-42.5 -106t-104.5 -43q-63 0 -106.5 43t-43.5 106z" />
<glyph unicode=";" horiz-adv-x="622" d="M66 -285l145 566h254l-248 -566h-151zM143 995q0 63 43.5 106.5t106.5 43.5q62 0 104.5 -43.5t42.5 -106.5t-42.5 -106t-104.5 -43q-63 0 -106.5 43t-43.5 106z" />
<glyph unicode="&#x3c;" horiz-adv-x="1253" d="M201 739l471 465h295l-473 -465l473 -465h-295z" />
<glyph unicode="=" horiz-adv-x="1585" d="M248 410v196h1089v-196h-1089zM248 874v197h1089v-197h-1089z" />
<glyph unicode="&#x3e;" horiz-adv-x="1208" d="M229 274l473 465l-473 465h295l471 -465l-471 -465h-295z" />
<glyph unicode="?" horiz-adv-x="1101" d="M82 1022q-2 188 122.5 305t332.5 117t334 -115t126 -313q0 -106 -36 -186.5t-101 -130t-151 -74.5t-191 -25l-8 -162h-203l-10 322h68q75 0 132 6t111 22.5t89 44.5t56 74t21 109q0 108 -62.5 169.5t-172.5 61.5t-174 -59.5t-64 -165.5h-219zM256 135q0 63 43.5 106.5 t106.5 43.5q62 0 104.5 -43.5t42.5 -106.5t-42.5 -106t-104.5 -43q-63 0 -106.5 43t-43.5 106z" />
<glyph unicode="@" horiz-adv-x="2099" d="M143 266q0 220 79 414.5t217.5 336t337.5 224t427 82.5q351 0 551.5 -187.5t200.5 -498.5q0 -121 -31.5 -236t-89 -208t-148 -150t-198.5 -57q-104 0 -164 46t-74 130q-64 -81 -160 -128.5t-200 -47.5q-158 0 -247 95.5t-89 258.5q0 115 37.5 222t103 188t161.5 129.5 t206 48.5q179 0 250 -121l18 102h203l-102 -585q-7 -56 -5.5 -96.5t25 -63.5t72.5 -23q60 0 108.5 47.5t76.5 122t43 156.5t15 160q0 260 -151.5 397t-439.5 137q-180 0 -337 -67t-267.5 -183.5t-174 -279t-63.5 -346.5q0 -262 156 -399.5t444 -137.5q193 0 340 72l31 -156 q-188 -80 -418 -80q-339 0 -541.5 185t-202.5 497zM772 375q0 -95 47.5 -152t143.5 -57q86 0 157.5 50.5t111.5 133.5t40 176q0 98 -54 161t-153 63q-88 0 -156.5 -56t-102.5 -140.5t-34 -178.5z" />
<glyph unicode="A" horiz-adv-x="1427" d="M70 0l510 1425h270l510 -1425h-246l-102 291h-596l-103 -291h-243zM481 481h465l-231 662z" />
<glyph unicode="B" horiz-adv-x="1290" d="M154 0v1423h542q218 0 339.5 -104t121.5 -262q0 -123 -66 -205t-176 -121q115 -20 195 -120.5t80 -227.5q0 -167 -126.5 -275t-340.5 -108h-569zM387 190h315q119 0 186.5 58t67.5 160q0 105 -72 166t-190 61h-307v-445zM387 825h289q115 0 179.5 53t64.5 150t-65 151 t-179 54h-289v-408z" />
<glyph unicode="C" horiz-adv-x="1583" d="M76 715q0 208 98 375.5t264 259.5t365 92q227 0 404 -111.5t257 -316.5h-280q-112 223 -381 223q-216 0 -352 -142t-136 -380t136.5 -381.5t351.5 -143.5q269 0 381 224h280q-80 -205 -256.5 -315.5t-404.5 -110.5q-200 0 -365.5 91.5t-263.5 259t-98 376.5z" />
<glyph unicode="D" horiz-adv-x="1452" d="M154 0v1423h464q344 0 550 -193.5t206 -522.5q0 -216 -93.5 -376.5t-264.5 -245.5t-398 -85h-464zM387 190h231q250 0 383.5 136t133.5 381q0 247 -134 386.5t-383 139.5h-231v-1043z" />
<glyph unicode="E" horiz-adv-x="1073" d="M154 0v1425h786v-190h-553v-418h492v-190h-492v-437h553v-190h-786z" />
<glyph unicode="F" horiz-adv-x="1054" d="M154 0v1423h837v-190h-604v-420h471v-190h-471v-623h-233z" />
<glyph unicode="G" horiz-adv-x="1583" d="M76 715q0 208 98 375.5t264 259.5t365 92q227 0 404 -111.5t257 -316.5h-280q-56 106 -154 160.5t-227 54.5q-215 0 -351.5 -141t-136.5 -373t136.5 -374t351.5 -142q190 0 308.5 106t145.5 289h-534v186h784v-182q-16 -124 -75 -234.5t-149 -194t-215 -132.5t-265 -49 q-200 0 -365.5 91.5t-263.5 259t-98 376.5z" />
<glyph unicode="H" horiz-adv-x="1443" d="M154 0v1423h233v-610h670v610h233v-1423h-233v623h-670v-623h-233z" />
<glyph unicode="I" horiz-adv-x="540" d="M154 0v1423h233v-1423h-233z" />
<glyph unicode="J" horiz-adv-x="1155" d="M90 397h236q2 -93 48 -148.5t136 -55.5q91 0 137.5 55.5t46.5 148.5v1026h236v-1026q0 -190 -116 -300.5t-304 -110.5t-304 110.5t-116 300.5z" />
<glyph unicode="K" horiz-adv-x="1296" d="M154 0v1423h233v-649l553 649h293l-619 -712l629 -711h-305l-551 637v-637h-233z" />
<glyph unicode="L" horiz-adv-x="909" d="M154 0v1423h233v-1235h481v-188h-714z" />
<glyph unicode="M" horiz-adv-x="1806" d="M154 0v1423h252l499 -1116l498 1116h250v-1423h-234v975l-434 -975h-162l-436 975v-975h-233z" />
<glyph unicode="N" horiz-adv-x="1476" d="M154 0v1425h233l703 -1060v1060h233v-1425h-233l-703 1063v-1063h-233z" />
<glyph unicode="O" horiz-adv-x="1605" d="M76 715q0 208 98 375.5t264 259.5t365 92q202 0 367.5 -92t262.5 -259t97 -376q0 -210 -97 -377.5t-262.5 -259.5t-367.5 -92q-199 0 -365 92t-264 260t-98 377zM315 715q0 -239 136.5 -383t351.5 -144t351 144t136 383q0 238 -136 380t-351 142q-216 0 -352 -142 t-136 -380z" />
<glyph unicode="P" horiz-adv-x="1218" d="M154 0v1423h491q123 0 220.5 -33.5t158.5 -92t93 -134.5t32 -164q0 -80 -27.5 -152t-84.5 -134t-158 -98.5t-234 -36.5h-258v-578h-233zM387 768h258q133 0 198.5 60.5t65.5 170.5q0 113 -65 173.5t-199 60.5h-258v-465z" />
<glyph unicode="Q" horiz-adv-x="1611" d="M76 715q0 208 98 375.5t264 259.5t365 92q202 0 367.5 -92t262.5 -259t97 -376q0 -197 -85.5 -356t-234.5 -255l342 -362h-297l-249 270q-91 -26 -203 -26q-199 0 -365 92t-264 260t-98 377zM315 715q0 -239 136.5 -383t351.5 -144t351 144t136 383q0 238 -136 380 t-351 142q-216 0 -352 -142t-136 -380z" />
<glyph unicode="R" horiz-adv-x="1294" d="M154 0v1423h491q123 0 220.5 -34t158.5 -92.5t93 -135t32 -164.5q0 -66 -18.5 -127t-56 -117t-103 -99t-152.5 -64l352 -590h-278l-328 569h-178v-569h-233zM387 756h258q132 0 198 65t66 176t-65.5 173.5t-198.5 62.5h-258v-477z" />
<glyph unicode="S" horiz-adv-x="1236" d="M119 393h250q8 -93 73 -152t181 -59q120 0 188 58t68 151q0 55 -26 95t-69.5 65t-100.5 43.5t-119.5 35t-125 35t-119.5 48t-100.5 70t-69.5 105t-26 148.5q0 186 134.5 296t354.5 110q207 0 339 -103t147 -284h-258q-6 76 -70.5 130.5t-169.5 57.5h-12q-98 -1 -161 -49 q-67 -52 -67 -150q0 -51 26 -89t69.5 -62t100 -42.5t119 -35.5t125 -36.5t119 -50t100 -71.5t69.5 -106t26 -148q0 -81 -33 -155.5t-93 -133t-155 -93.5t-210 -35q-219 0 -361.5 111t-142.5 296z" />
<glyph unicode="T" horiz-adv-x="1155" d="M80 1233v190h993v-190h-379v-1233h-233v1233h-381z" />
<glyph unicode="U" horiz-adv-x="1413" d="M152 520v903h233v-907q0 -162 85 -244t237 -82q153 0 238 82t85 244v907h234v-903q0 -132 -45 -235.5t-123.5 -168t-177.5 -97.5t-213 -33t-213 33t-175.5 97.5t-120.5 168t-44 235.5z" />
<glyph unicode="V" horiz-adv-x="1421" d="M39 1423h250l422 -1183l424 1183h245l-534 -1423h-271z" />
<glyph unicode="W" horiz-adv-x="2045" d="M39 1423h248l295 -1159l319 1159h262l297 -1153l297 1153h250l-422 -1423h-264l-299 1077l-317 -1077l-263 -2z" />
<glyph unicode="X" horiz-adv-x="1351" d="M102 1423h263l323 -520l303 520h260l-444 -712l442 -711h-262l-321 516l-301 -516h-261l443 711z" />
<glyph unicode="Y" horiz-adv-x="1239" d="M31 1423h260l330 -698l329 698h258l-471 -907v-516h-233v516z" />
<glyph unicode="Z" horiz-adv-x="1142" d="M102 0v182l660 1039h-660v202h938v-182l-661 -1038h661v-203h-938z" />
<glyph unicode="[" horiz-adv-x="993" d="M303 -381v2294h426v-193h-207v-1906h207v-195h-426z" />
<glyph unicode="\" horiz-adv-x="1468" d="M336 1933h229l615 -2291h-230z" />
<glyph unicode="]" horiz-adv-x="991" d="M262 -186v-195h426v2294h-426v-193h207v-1906h-207z" />
<glyph unicode="^" horiz-adv-x="1339" d="M74 344l485 1081h221l488 -1081h-244l-352 799l-357 -799h-241z" />
<glyph unicode="_" horiz-adv-x="1634" d="M258 -82h1143v-217h-1143v217z" />
<glyph unicode="`" horiz-adv-x="520" d="M20 1432v198l453 -250v-172z" />
<glyph unicode="a" d="M76 569q0 128 41.5 237t113 183t169 116t208.5 42q132 0 232 -52t159 -130v163h236v-1128h-236v168q-60 -80 -161.5 -133t-233.5 -53q-146 0 -266 73.5t-191 208.5t-71 305zM315 569q0 -175 102 -280t240 -105q67 0 128 25.5t109 73t76.5 120.5t28.5 162q0 88 -28.5 161 t-76.5 120t-109 72.5t-128 25.5q-139 0 -240.5 -100.5t-101.5 -274.5z" />
<glyph unicode="b" d="M154 0v1516h233v-555q59 82 162.5 134t230.5 52q111 0 209 -42t169 -116.5t112 -183t41 -236.5t-41.5 -238t-112.5 -186.5t-169 -119.5t-208 -43q-131 0 -231.5 51t-161.5 131v-164h-233zM387 565q0 -89 29 -162t77 -120.5t109 -73t127 -25.5q67 0 128.5 26.5t109.5 74 t77 121.5t29 163q0 174 -101.5 274.5t-242.5 100.5q-139 0 -240.5 -103t-101.5 -276z" />
<glyph unicode="c" horiz-adv-x="1228" d="M76 565q0 262 154 422t399 160q205 0 338.5 -97.5t181.5 -277.5h-252q-30 84 -98 131t-170 47q-143 0 -228.5 -101.5t-85.5 -283.5q0 -183 85.5 -285t228.5 -102q203 0 268 178h252q-49 -171 -184 -272.5t-336 -101.5q-245 0 -399 160t-154 423z" />
<glyph unicode="d" d="M76 569q0 128 41.5 237t113 183t170 116t209.5 42q110 0 217.5 -48.5t171.5 -127.5v545h236v-1516h-236v170q-58 -83 -159.5 -135.5t-231.5 -52.5q-226 0 -379 165t-153 422zM315 569q0 -175 102 -280t240 -105q67 0 128 25.5t109 73t76.5 120.5t28.5 162q0 88 -28.5 161 t-76.5 120t-109 72.5t-128 25.5q-139 0 -240.5 -100.5t-101.5 -274.5z" />
<glyph unicode="e" horiz-adv-x="1263" d="M76 565q0 264 155.5 423t407.5 159q243 0 396 -153.5t153 -401.5q0 -63 -8 -115h-863q12 -137 101.5 -218t220.5 -81q189 0 266 158h252q-50 -156 -185 -255t-333 -99q-246 0 -404.5 160.5t-158.5 422.5zM319 666h625q-3 128 -92.5 206t-222.5 78q-121 0 -206.5 -76.5 t-103.5 -207.5z" />
<glyph unicode="f" horiz-adv-x="679" d="M49 938v190h133v80q0 194 103 283.5t325 89.5v-195q-106 0 -149 -40.5t-43 -137.5v-80h209v-190h-209v-938h-236v938h-133z" />
<glyph unicode="g" d="M76 569q0 128 41.5 237t113 183t169 116t208.5 42q130 0 232 -51.5t159 -130.5v163h236v-1146q0 -237 -147 -388t-404 -151q-229 0 -380.5 107t-172.5 292h231q26 -88 113.5 -142t208.5 -54q141 0 228 86.5t87 249.5v188q-60 -80 -161 -134t-230 -54q-226 0 -379 165 t-153 422zM315 569q0 -175 102 -280t240 -105q67 0 128 25.5t109 73t76.5 120.5t28.5 162q0 88 -28.5 161t-76.5 120t-109 72.5t-128 25.5q-139 0 -240.5 -100.5t-101.5 -274.5z" />
<glyph unicode="h" horiz-adv-x="1329" d="M154 0v1516h233v-519q59 71 150.5 110.5t199.5 39.5q197 0 323 -126.5t126 -354.5v-666h-232v631q0 152 -75.5 232.5t-206.5 80.5q-132 0 -208.5 -80.5t-76.5 -232.5v-631h-233z" />
<glyph unicode="i" horiz-adv-x="540" d="M123 1427q0 63 43 106.5t106 43.5q62 0 105 -43.5t43 -106.5t-43 -106t-105 -43q-63 0 -106 43t-43 106zM154 0v1128h233v-1128h-233z" />
<glyph unicode="j" horiz-adv-x="540" d="M-57 -340h80q72 0 101.5 27.5t29.5 91.5v1349h233v-1349q0 -166 -83.5 -241t-240.5 -75h-120v197zM123 1427q0 63 43 106.5t106 43.5q62 0 105 -43.5t43 -106.5t-43 -106t-105 -43q-63 0 -106 43t-43 106z" />
<glyph unicode="k" horiz-adv-x="1134" d="M154 0v1516h233v-881l410 493h323l-520 -565l520 -563h-315l-418 485v-485h-233z" />
<glyph unicode="l" horiz-adv-x="540" d="M154 0v1516h233v-1516h-233z" />
<glyph unicode="m" horiz-adv-x="2127" d="M154 0v1128h233v-129q57 69 145 108.5t189 39.5q136 0 241.5 -57t163.5 -166q52 102 161 162.5t233 60.5q100 0 184.5 -31.5t147 -90.5t98 -151.5t35.5 -207.5v-666h-232v631q0 152 -76 232.5t-207 80.5q-132 0 -208 -80.5t-76 -232.5v-631h-232v631q0 152 -75.5 232.5 t-206.5 80.5q-132 0 -208.5 -80.5t-76.5 -232.5v-631h-233z" />
<glyph unicode="n" horiz-adv-x="1329" d="M154 0v1128h233v-129q57 69 146 108.5t190 39.5q205 0 334 -126t129 -355v-666h-232v631q0 152 -75.5 232.5t-206.5 80.5q-132 0 -208.5 -80.5t-76.5 -232.5v-631h-233z" />
<glyph unicode="o" horiz-adv-x="1306" d="M78 565q0 130 44.5 240t122 184.5t183 116t225.5 41.5q161 0 291.5 -70.5t207.5 -204.5t77 -307t-79 -307t-212 -205t-295 -71q-120 0 -224 41.5t-179.5 116.5t-118.5 185t-43 240zM315 565q0 -183 94 -282t234 -99q67 0 128 24t110 70t78.5 120t29.5 167t-28.5 167 t-76.5 119t-108 69t-127 24q-141 0 -237.5 -98.5t-96.5 -280.5z" />
<glyph unicode="p" d="M154 -537v1665h233v-165q60 78 162 131t231 53q148 0 268.5 -71t191.5 -204t71 -303q0 -128 -41.5 -238t-112.5 -186.5t-169 -119.5t-208 -43q-128 0 -228 52.5t-165 129.5v-701h-233zM387 565q0 -89 29 -162t77 -120.5t109 -73t127 -25.5q67 0 128.5 26.5t109.5 74 t77 121.5t29 163q0 174 -101.5 274.5t-242.5 100.5q-139 0 -240.5 -103t-101.5 -276z" />
<glyph unicode="q" d="M76 569q0 128 41.5 237t113 183t170 116t209.5 42q130 0 232 -52.5t157 -129.5v163h236v-1665h-236v701q-56 -75 -160.5 -128.5t-236.5 -53.5q-108 0 -204.5 43t-167.5 119.5t-112.5 186.5t-41.5 238zM315 569q0 -175 102 -280t240 -105q67 0 128 25.5t109 73t76.5 120.5 t28.5 162q0 88 -28.5 161t-76.5 120t-109 72.5t-128 25.5q-139 0 -240.5 -100.5t-101.5 -274.5z" />
<glyph unicode="r" horiz-adv-x="786" d="M154 0v1128h233v-163q106 182 338 182v-242h-59q-138 0 -208.5 -70t-70.5 -241v-594h-233z" />
<glyph unicode="s" horiz-adv-x="1093" d="M92 346h242q6 -71 68.5 -119.5t156.5 -48.5q99 0 153 37.5t54 97.5q0 35 -22.5 61.5t-60.5 44t-87 32t-103.5 29t-108.5 31.5t-103 43.5t-87 60.5t-60.5 87t-22.5 119q0 139 119.5 232.5t314.5 93.5q192 0 309.5 -97.5t126.5 -265.5h-233q-6 75 -62 120.5t-149 45.5 q-92 0 -141.5 -34.5t-49.5 -92.5q0 -46 35 -78t91.5 -51.5t125 -37t137.5 -42.5t126 -59.5t94.5 -95.5t39.5 -144q0 -145 -118 -239t-314 -94q-200 0 -331.5 104t-139.5 260z" />
<glyph unicode="t" horiz-adv-x="761" d="M57 938v190h133v281h236v-281h274v-190h-274v-625q0 -64 29 -91t102 -27h143v-195h-184q-158 0 -242 74t-84 239v625h-133z" />
<glyph unicode="u" horiz-adv-x="1329" d="M143 465v663h232v-628q0 -152 76 -233t206 -81q132 0 208.5 81t76.5 233v628h234v-1128h-234v135q-55 -71 -144 -111t-190 -40q-100 0 -184.5 31.5t-147 90.5t-98 151.5t-35.5 207.5z" />
<glyph unicode="v" horiz-adv-x="1179" d="M20 1128h250l320 -919l319 919h248l-430 -1128h-278z" />
<glyph unicode="w" horiz-adv-x="1689" d="M20 1128h238l236 -907l239 907h244l229 -903l234 903h229l-350 -1128h-246l-227 834l-228 -834h-245z" />
<glyph unicode="x" horiz-adv-x="1021" d="M20 0l365 555l-365 573h265l243 -383l230 383h243l-364 -557l364 -571h-264l-243 383l-230 -383h-244z" />
<glyph unicode="y" horiz-adv-x="1191" d="M20 1128h261l317 -860l330 860h241l-692 -1658h-241l229 548z" />
<glyph unicode="z" horiz-adv-x="964" d="M90 0v190l514 748h-514v190h782v-190l-512 -748h512v-190h-782z" />
<glyph unicode="{" horiz-adv-x="1056" d="M258 678v176q98 10 150.5 59t52.5 129q0 76 -17.5 277.5t-17.5 288.5q0 146 85 227.5t224 81.5h137v-203h-90q-65 0 -97 -30t-32 -95q0 -66 16.5 -264.5t16.5 -290.5q0 -222 -213 -266v-4q213 -44 213 -266q0 -92 -16.5 -290.5t-16.5 -264.5q0 -65 32 -95t97 -30h90v-203 h-137q-139 0 -224 81.5t-85 227.5q0 87 17.5 288t17.5 277q0 80 -52.5 129.5t-150.5 59.5z" />
<glyph unicode="|" horiz-adv-x="663" d="M215 -231v1871h234v-1871h-234z" />
<glyph unicode="}" horiz-adv-x="1056" d="M184 -182v-203h138q139 0 224 81.5t85 227.5q0 87 -17.5 288t-17.5 277q0 80 52.5 129.5t150.5 59.5v176q-98 10 -150.5 59t-52.5 129q0 76 17.5 277.5t17.5 288.5q0 146 -85 227.5t-224 81.5h-138v-203h90q65 0 97 -30t32 -95q0 -66 -16 -264.5t-16 -290.5 q0 -222 213 -266v-4q-213 -44 -213 -266q0 -92 16 -290.5t16 -264.5q0 -65 -32 -95t-97 -30h-90z" />
<glyph unicode="~" horiz-adv-x="1132" d="M74 487q30 173 113.5 255.5t211.5 82.5q54 0 106 -21t85.5 -45.5t77 -45.5t82.5 -21q52 0 91 33.5t48 95.5h170q-30 -173 -115 -255.5t-213 -82.5q-54 0 -105.5 21t-84 45.5t-75.5 45.5t-83 21q-53 0 -92.5 -34t-48.5 -95h-168z" />
<glyph unicode="&#xa1;" horiz-adv-x="657" d="M180 1012q0 -63 43.5 -106.5t106.5 -43.5q62 0 104.5 43.5t42.5 106.5t-42.5 106t-104.5 43q-63 0 -106.5 -43t-43.5 -106zM199 -276h247l-26 993h-195z" />
<glyph unicode="&#xa2;" horiz-adv-x="1413" d="M135 530q0 142 51.5 256t159.5 189.5t260 89.5v178h133v-178q177 -19 290 -116.5t128 -241.5h-217q-52 167 -266 167q-146 0 -232 -92t-86 -252t86 -251t232 -91q214 0 266 168h217q-15 -144 -128 -241.5t-290 -116.5v-178h-133v178q-152 14 -260 89.5t-159.5 188.5 t-51.5 254z" />
<glyph unicode="&#xa3;" horiz-adv-x="1323" d="M86 618v162h174q-43 127 -43 250q0 206 129 326.5t336 120.5q112 0 199 -34.5t140 -95.5t80 -138.5t29 -168.5h-212q0 110 -57.5 175t-178.5 65q-110 0 -177 -64t-67 -198q0 -99 47 -238h398v-162h-351q11 -53 11 -88q0 -198 -137 -344h737v-190h-948l-41 127 q87 94 127.5 184t40.5 225q0 36 -11 86h-225z" />
<glyph unicode="&#xa4;" horiz-adv-x="1122" d="M123 440l119 121q-60 88 -60 211q0 126 64 215l-123 121l104 104l127 -127q93 52 207 52q116 0 209 -52l127 127l102 -104l-120 -123q63 -88 63 -213q0 -123 -63 -211l120 -121l-102 -104l-127 125q-89 -53 -213 -53q-119 0 -207 51l-123 -123zM375 772q0 -104 52 -161.5 t130 -57.5t134.5 58t56.5 161q0 104 -55.5 162.5t-133.5 58.5t-131 -58.5t-53 -162.5z" />
<glyph unicode="&#xa5;" horiz-adv-x="1239" d="M31 1423h260l327 -694l328 694h262l-319 -614h258v-168l-346 -4l-64 -121v-61h410v-168h-410v-287h-233v287h-410v168h410v61l-64 121l-346 4v168h256z" />
<glyph unicode="&#xa6;" horiz-adv-x="663" d="M215 -231v794h234v-794h-234zM215 846v794h234v-794h-234z" />
<glyph unicode="&#xa7;" horiz-adv-x="1183" d="M84 500q0 110 64.5 196t187.5 131q-89 50 -136.5 113.5t-47.5 153.5q0 143 119.5 241.5t318.5 98.5q191 0 310.5 -89.5t119.5 -248.5h-234q-6 82 -54.5 129t-141.5 47q-98 0 -151.5 -40.5t-53.5 -117.5q0 -70 64 -114.5t258 -114.5q201 -71 297 -159.5t96 -225.5 q0 -109 -63 -192.5t-187 -135.5q87 -50 134.5 -113.5t47.5 -152.5q0 -143 -119.5 -241.5t-318.5 -98.5q-191 0 -310.5 89.5t-119.5 248.5h233q6 -82 55 -129t142 -47q98 0 151.5 40t53.5 117q0 70 -64 115t-258 115q-201 71 -297 159.5t-96 225.5zM324 500q0 -89 75 -151 t197 -62q120 0 192 61.5t72 151.5q0 91 -74.5 152t-195.5 61q-122 0 -194 -61.5t-72 -151.5z" />
<glyph unicode="&#xa8;" horiz-adv-x="638" d="M20 1393q0 51 35.5 87t87.5 36q51 0 87 -36t36 -87q0 -52 -36 -87.5t-87 -35.5q-53 0 -88 35t-35 88zM373 1393q0 51 35.5 87t87.5 36q51 0 86.5 -36t35.5 -87q0 -52 -35.5 -87.5t-86.5 -35.5q-52 0 -87.5 35t-35.5 88z" />
<glyph unicode="&#xa9;" horiz-adv-x="1615" d="M94 713q0 159 52.5 294.5t145.5 231t226.5 149.5t290.5 54q208 0 371 -92.5t252.5 -258.5t89.5 -378t-89.5 -378.5t-252.5 -259.5t-371 -93q-157 0 -290.5 54.5t-226.5 150.5t-145.5 231.5t-52.5 294.5zM197 713q0 -288 165.5 -462.5t446.5 -174.5q279 0 444.5 174.5 t165.5 462.5q0 290 -165 462.5t-445 172.5q-282 0 -447 -172.5t-165 -462.5zM356 715q0 -211 127.5 -341t319.5 -130q156 0 268.5 83t151.5 218h-213q-26 -66 -75 -100.5t-132 -34.5q-109 0 -174.5 79t-65.5 226t65.5 225t174.5 78q77 0 131 -35t76 -100h213 q-38 142 -149 221.5t-271 79.5q-192 0 -319.5 -129t-127.5 -340z" />
<glyph unicode="&#xaa;" horiz-adv-x="933" d="M63 1085q0 160 100 263.5t245 103.5q166 0 258 -111v99h182v-717h-182v94q-35 -46 -100.5 -76t-151.5 -30q-149 0 -250 106t-101 268zM252 1083q0 -105 61.5 -168t145.5 -63q86 0 146.5 61.5t60.5 167.5t-60.5 168t-146.5 62q-85 0 -146 -61.5t-61 -166.5z" />
<glyph unicode="&#xab;" horiz-adv-x="1001" d="M92 604l189 359h225l-197 -359l197 -358h-225zM485 604l189 359h225l-197 -359l197 -358h-225z" />
<glyph unicode="&#xac;" horiz-adv-x="1329" d="M76 709v182h1163v-465h-233v283h-930z" />
<glyph unicode="&#xad;" horiz-adv-x="1198" d="M178 643v197h842v-197h-842z" />
<glyph unicode="&#xae;" horiz-adv-x="1058" d="M102 1016q0 188 120 308t308 120q186 0 306 -120.5t120 -307.5t-120 -307.5t-306 -120.5q-188 0 -308 120t-120 308zM205 1016q0 -151 88 -242.5t237 -91.5q148 0 237 92t89 242t-89 242t-237 92q-149 0 -237 -91.5t-88 -242.5zM354 801v440h207q71 0 114.5 -39.5 t43.5 -103.5q0 -91 -84 -129l108 -168h-155l-90 153h-15v-153h-129zM483 1059h70q39 0 39 35q0 32 -39 32h-70v-67z" />
<glyph unicode="&#xaf;" horiz-adv-x="790" d="M20 1300v175h750v-175h-750z" />
<glyph unicode="&#xb0;" horiz-adv-x="874" d="M57 1075q0 165 107 264t274 99q166 0 272.5 -99t106.5 -264q0 -163 -109 -263.5t-276 -100.5t-271 99.5t-104 264.5zM242 1075q0 -110 54 -168.5t136 -58.5t140.5 59t58.5 168q0 108 -57.5 169t-139.5 61q-80 0 -136 -60.5t-56 -169.5z" />
<glyph unicode="&#xb1;" horiz-adv-x="1468" d="M213 260v197h414v305h-414v196h414v314h217v-314h411v-196h-411v-305h411v-197h-1042z" />
<glyph unicode="&#xb2;" horiz-adv-x="696" d="M55 1239q5 98 78 157.5t199 59.5q125 0 200.5 -69t75.5 -164q0 -74 -44 -131t-148 -127l-150 -97h344v-147h-551v135l222 162q68 52 101.5 97.5t33.5 98.5q0 46 -25.5 74.5t-64.5 28.5q-37 0 -59 -21t-27 -57h-185z" />
<glyph unicode="&#xb3;" horiz-adv-x="700" d="M37 936h180q7 -44 37 -67t76 -23q47 0 76.5 25t29.5 67q0 41 -30 64.5t-80 23.5h-76v119h69q51 0 81 22t30 64q0 40 -27.5 64t-76.5 24q-87 0 -107 -72h-174q8 93 88.5 151t206.5 58q120 0 203.5 -63t83.5 -152q0 -61 -34.5 -101.5t-90.5 -56.5v-4q57 -20 94 -62.5 t37 -103.5q0 -87 -85 -144.5t-216 -57.5q-130 0 -210.5 60t-84.5 165z" />
<glyph unicode="&#xb4;" horiz-adv-x="493" d="M20 1208v172l453 250v-198z" />
<glyph unicode="&#xb5;" horiz-adv-x="1339" d="M154 -537v1665h231v-630q0 -152 76 -233t207 -81q132 0 208 81t76 233v630h234v-1128h-234v178q-55 -95 -148 -144.5t-212 -49.5q-123 0 -207 63v-584h-231z" />
<glyph unicode="&#xb6;" horiz-adv-x="1290" d="M72 999q0 89 29 164t86.5 134t152.5 92.5t217 33.5h580v-1423h-207v1241h-137v-1241h-207v578h-29q-123 0 -217.5 33t-152 91.5t-86.5 133t-29 163.5z" />
<glyph unicode="&#xb7;" horiz-adv-x="499" d="M106 686q0 63 43.5 106.5t106.5 43.5q62 0 104.5 -43.5t42.5 -106.5t-42.5 -106t-104.5 -43q-63 0 -106.5 43t-43.5 106z" />
<glyph unicode="&#xb8;" horiz-adv-x="571" d="M20 -389h224q58 0 86 16.5t28 59.5t-28 59t-86 16h-113v252h154v-112q118 0 192 -56t74 -159q0 -102 -74 -163t-186 -61h-271v148z" />
<glyph unicode="&#xb9;" horiz-adv-x="428" d="M41 1303v139h293v-721h-182v582h-111z" />
<glyph unicode="&#xba;" horiz-adv-x="909" d="M63 1081q0 167 111.5 269t280.5 102q170 0 280.5 -101.5t110.5 -269.5q0 -164 -113 -267t-282 -103t-278.5 102.5t-109.5 267.5zM252 1079q0 -106 57.5 -165.5t141.5 -59.5t145 60t61 165q0 110 -60 171t-144 61t-142.5 -61t-58.5 -171z" />
<glyph unicode="&#xbb;" horiz-adv-x="1001" d="M102 246l195 358l-195 359h224l190 -359l-190 -358h-224zM496 246l194 358l-194 359h223l190 -359l-190 -358h-223z" />
<glyph unicode="&#xbc;" horiz-adv-x="1396" d="M70 1303v139h292v-721h-182v582h-110zM129 0l784 1425h220l-783 -1425h-221zM662 137v103l309 483h254v-471h92v-115h-92v-137h-183v137h-380zM844 252h203v332z" />
<glyph unicode="&#xbd;" horiz-adv-x="1435" d="M70 1303v139h292v-721h-182v582h-110zM129 0l760 1425h221l-760 -1425h-221zM791 516q5 98 77.5 157.5t198.5 59.5q125 0 200.5 -69t75.5 -164q0 -74 -44 -131t-148 -127l-150 -97h345v-147h-551v135l221 162q67 52 101 97.5t34 99.5q0 46 -25.5 74t-64.5 28 q-37 0 -59 -21t-27 -57h-184z" />
<glyph unicode="&#xbe;" horiz-adv-x="1519" d="M68 936h180q7 -44 36.5 -67t75.5 -23q47 0 77 25t30 67q0 41 -30.5 64.5t-80.5 23.5h-75v119h69q51 0 81 22t30 64q0 40 -28 64t-77 24q-86 0 -106 -72h-174q8 93 88.5 151t206.5 58q120 0 203 -63t83 -152q0 -61 -34.5 -101.5t-90.5 -56.5v-4q57 -21 94.5 -63t37.5 -103 q0 -87 -85.5 -144.5t-216.5 -57.5q-130 0 -210 60t-84 165zM285 0l823 1425h219l-823 -1425h-219zM811 137v103l309 483h254v-471h92v-115h-92v-137h-182v137h-381zM993 252h203v332z" />
<glyph unicode="&#xbf;" horiz-adv-x="1101" d="M104 119q0 106 36 186.5t101.5 130t151.5 74.5t191 25l8 161h203l10 -321h-68q-75 0 -132 -6t-111 -22.5t-89 -44.5t-56 -74t-21 -109q0 -108 62.5 -170t172.5 -62t174 60t64 166h219q2 -188 -122.5 -305t-332.5 -117t-334.5 115.5t-126.5 312.5zM549 999 q0 63 42.5 106.5t104.5 43.5q63 0 106.5 -43.5t43.5 -106.5t-43.5 -106t-106.5 -43q-62 0 -104.5 43t-42.5 106z" />
<glyph unicode="&#xc0;" horiz-adv-x="1427" d="M70 0l510 1425h270l510 -1425h-246l-102 291h-596l-103 -291h-243zM473 1729v198l453 -250v-172zM481 481h465l-231 662z" />
<glyph unicode="&#xc1;" horiz-adv-x="1427" d="M70 0l510 1425h270l510 -1425h-246l-102 291h-596l-103 -291h-243zM473 1505v172l453 250v-198zM481 481h465l-231 662z" />
<glyph unicode="&#xc2;" horiz-adv-x="1427" d="M70 0l510 1425h270l510 -1425h-246l-102 291h-596l-103 -291h-243zM422 1505v183l293 170l293 -170v-183l-293 176zM481 481h465l-231 662z" />
<glyph unicode="&#xc3;" horiz-adv-x="1427" d="M70 0l510 1425h270l510 -1425h-246l-102 291h-596l-103 -291h-243zM381 1542q17 118 78 179t153 61q47 0 89 -22.5t79 -45t70 -22.5q76 0 88 86h131q-17 -118 -78 -179t-153 -61q-47 0 -89 23t-79 46t-70 23q-35 0 -58.5 -22.5t-29.5 -65.5h-131zM481 481h465l-231 662z " />
<glyph unicode="&#xc4;" horiz-adv-x="1427" d="M70 0l510 1425h270l510 -1425h-246l-102 291h-596l-103 -291h-243zM416 1690q0 51 35.5 86.5t87.5 35.5q51 0 87 -35.5t36 -86.5q0 -52 -36 -87.5t-87 -35.5q-53 0 -88 35.5t-35 87.5zM481 481h465l-231 662zM768 1690q0 51 35.5 86.5t87.5 35.5q51 0 87 -35.5t36 -86.5 q0 -52 -36 -87.5t-87 -35.5q-53 0 -88 35.5t-35 87.5z" />
<glyph unicode="&#xc5;" horiz-adv-x="1427" d="M70 0l510 1425h270l510 -1425h-246l-102 291h-596l-103 -291h-243zM481 481h465l-231 662zM485 1759q0 101 66.5 163.5t163.5 62.5q99 0 165 -62t66 -164q0 -101 -66 -162t-165 -61q-97 0 -163.5 61.5t-66.5 161.5zM616 1761q0 -45 29 -74.5t70 -29.5q42 0 71 29.5 t29 74.5q0 46 -29 75.5t-71 29.5q-41 0 -70 -29.5t-29 -75.5z" />
<glyph unicode="&#xc6;" horiz-adv-x="1886" d="M25 0l784 1425h942v-182h-551v-432h490v-180h-490v-449h551v-182h-784v291h-531l-157 -291h-254zM537 473h430v791z" />
<glyph unicode="&#xc7;" horiz-adv-x="1583" d="M76 715q0 208 98 375.5t264 259.5t365 92q227 0 404 -111.5t257 -316.5h-280q-112 223 -381 223q-216 0 -352 -142t-136 -380t136.5 -381.5t351.5 -143.5q269 0 381 224h280q-73 -188 -229.5 -297t-360.5 -127v-88q118 0 192.5 -56.5t74.5 -158.5t-74 -163t-186 -61h-271 v148h224q58 0 86 16.5t28 59.5t-28 59t-86 16h-113v230q-135 14 -253.5 73t-205 152t-136.5 222t-50 276z" />
<glyph unicode="&#xc8;" horiz-adv-x="1073" d="M154 0v1425h786v-190h-553v-418h492v-190h-492v-437h553v-190h-786zM295 1729v198l453 -250v-172z" />
<glyph unicode="&#xc9;" horiz-adv-x="1073" d="M154 0v1425h786v-190h-553v-418h492v-190h-492v-437h553v-190h-786zM295 1505v172l453 250v-198z" />
<glyph unicode="&#xca;" horiz-adv-x="1073" d="M154 0v1425h786v-190h-553v-418h492v-190h-492v-437h553v-190h-786zM244 1505v183l293 170l292 -170v-183l-292 176z" />
<glyph unicode="&#xcb;" horiz-adv-x="1073" d="M154 0v1425h786v-190h-553v-418h492v-190h-492v-437h553v-190h-786zM238 1690q0 51 35 86.5t87 35.5q51 0 87 -35.5t36 -86.5q0 -52 -36 -87.5t-87 -35.5q-52 0 -87 35t-35 88zM590 1690q0 51 35.5 86.5t87.5 35.5q51 0 87 -35.5t36 -86.5q0 -52 -36 -87.5t-87 -35.5 q-53 0 -88 35.5t-35 87.5z" />
<glyph unicode="&#xcc;" horiz-adv-x="540" d="M29 1729v198l452 -250v-172zM154 0v1423h233v-1423h-233z" />
<glyph unicode="&#xcd;" horiz-adv-x="540" d="M29 1505v172l452 250v-198zM154 0v1423h233v-1423h-233z" />
<glyph unicode="&#xce;" horiz-adv-x="540" d="M-23 1505v183l293 170l293 -170v-183l-293 176zM154 0v1423h233v-1423h-233z" />
<glyph unicode="&#xcf;" horiz-adv-x="540" d="M-29 1690q0 51 35.5 86.5t87.5 35.5q51 0 87 -35.5t36 -86.5q0 -52 -36 -87.5t-87 -35.5q-52 0 -87.5 35.5t-35.5 87.5zM154 0v1423h233v-1423h-233zM324 1690q0 51 35 86.5t87 35.5q51 0 87 -35.5t36 -86.5q0 -52 -36 -87.5t-87 -35.5q-52 0 -87 35t-35 88z" />
<glyph unicode="&#xd0;" horiz-adv-x="1474" d="M18 600v215h158v608h467q344 0 549 -193.5t205 -522.5q0 -327 -204.5 -517t-549.5 -190h-467v600h-158zM412 178h231q247 0 380.5 141t133.5 388q0 248 -133.5 388t-380.5 140h-231v-420h364v-215h-364v-422z" />
<glyph unicode="&#xd1;" horiz-adv-x="1476" d="M154 0v1425h233l703 -1060v1060h233v-1425h-233l-703 1063v-1063h-233zM406 1542q17 118 78 179t153 61q37 0 72 -14t57.5 -31t51.5 -31t56 -14q35 0 59 21.5t30 64.5h131q-17 -118 -78.5 -179t-153.5 -61q-37 0 -72 14.5t-57.5 31.5t-51.5 31.5t-56 14.5 q-35 0 -58.5 -22.5t-29.5 -65.5h-131z" />
<glyph unicode="&#xd2;" horiz-adv-x="1605" d="M76 715q0 208 98 375.5t264 259.5t365 92q202 0 367.5 -92t262.5 -259t97 -376q0 -210 -97 -377.5t-262.5 -259.5t-367.5 -92q-199 0 -365 92t-264 260t-98 377zM315 715q0 -239 136.5 -383t351.5 -144t351 144t136 383q0 238 -136 380t-351 142q-216 0 -352 -142 t-136 -380zM561 1729v198l453 -250v-172z" />
<glyph unicode="&#xd3;" horiz-adv-x="1605" d="M76 715q0 208 98 375.5t264 259.5t365 92q202 0 367.5 -92t262.5 -259t97 -376q0 -210 -97 -377.5t-262.5 -259.5t-367.5 -92q-199 0 -365 92t-264 260t-98 377zM315 715q0 -239 136.5 -383t351.5 -144t351 144t136 383q0 238 -136 380t-351 142q-216 0 -352 -142 t-136 -380zM561 1505v172l453 250v-198z" />
<glyph unicode="&#xd4;" horiz-adv-x="1605" d="M76 715q0 208 98 375.5t264 259.5t365 92q202 0 367.5 -92t262.5 -259t97 -376q0 -210 -97 -377.5t-262.5 -259.5t-367.5 -92q-199 0 -365 92t-264 260t-98 377zM315 715q0 -239 136.5 -383t351.5 -144t351 144t136 383q0 238 -136 380t-351 142q-216 0 -352 -142 t-136 -380zM510 1505v183l293 170l293 -170v-183l-293 176z" />
<glyph unicode="&#xd5;" horiz-adv-x="1605" d="M76 715q0 208 98 375.5t264 259.5t365 92q202 0 367.5 -92t262.5 -259t97 -376q0 -210 -97 -377.5t-262.5 -259.5t-367.5 -92q-199 0 -365 92t-264 260t-98 377zM315 715q0 -239 136.5 -383t351.5 -144t351 144t136 383q0 238 -136 380t-351 142q-216 0 -352 -142 t-136 -380zM469 1542q17 118 78 179t153 61q47 0 89 -22.5t79 -45t70 -22.5q76 0 88 86h131q-17 -118 -78 -179t-153 -61q-47 0 -89 23t-79 46t-70 23q-35 0 -58.5 -22.5t-29.5 -65.5h-131z" />
<glyph unicode="&#xd6;" horiz-adv-x="1605" d="M76 715q0 208 98 375.5t264 259.5t365 92q202 0 367.5 -92t262.5 -259t97 -376q0 -210 -97 -377.5t-262.5 -259.5t-367.5 -92q-199 0 -365 92t-264 260t-98 377zM315 715q0 -239 136.5 -383t351.5 -144t351 144t136 383q0 238 -136 380t-351 142q-216 0 -352 -142 t-136 -380zM504 1690q0 51 35.5 86.5t87.5 35.5q51 0 87 -35.5t36 -86.5q0 -52 -36 -87.5t-87 -35.5q-53 0 -88 35.5t-35 87.5zM856 1690q0 51 35.5 86.5t87.5 35.5q51 0 87 -35.5t36 -86.5q0 -52 -36 -87.5t-87 -35.5q-53 0 -88 35.5t-35 87.5z" />
<glyph unicode="&#xd7;" horiz-adv-x="1431" d="M252 436l313 312l-305 305l150 149l305 -305l305 305l154 -153l-306 -306l310 -311l-150 -149l-311 311l-311 -311z" />
<glyph unicode="&#xd8;" horiz-adv-x="1605" d="M53 0l205 221q-182 205 -182 494q0 208 98 375.5t264 259.5t365 92q253 0 446 -144l117 127h186l-202 -219q180 -202 180 -491q0 -210 -97 -377.5t-262.5 -259.5t-367.5 -92q-254 0 -445 143l-118 -129h-187zM315 715q0 -188 95 -330l694 756q-129 96 -301 96 q-216 0 -352 -142t-136 -380zM504 287q126 -99 299 -99q215 0 351 144t136 383q0 191 -92 325z" />
<glyph unicode="&#xd9;" horiz-adv-x="1413" d="M152 520v903h233v-907q0 -162 85 -244t237 -82q153 0 238 82t85 244v907h234v-903q0 -132 -45 -235.5t-123.5 -168t-177.5 -97.5t-213 -33t-213 33t-175.5 97.5t-120.5 168t-44 235.5zM465 1729v198l453 -250v-172z" />
<glyph unicode="&#xda;" horiz-adv-x="1413" d="M152 520v903h233v-907q0 -162 85 -244t237 -82q153 0 238 82t85 244v907h234v-903q0 -132 -45 -235.5t-123.5 -168t-177.5 -97.5t-213 -33t-213 33t-175.5 97.5t-120.5 168t-44 235.5zM465 1505v172l453 250v-198z" />
<glyph unicode="&#xdb;" horiz-adv-x="1413" d="M152 520v903h233v-907q0 -162 85 -244t237 -82q153 0 238 82t85 244v907h234v-903q0 -132 -45 -235.5t-123.5 -168t-177.5 -97.5t-213 -33t-213 33t-175.5 97.5t-120.5 168t-44 235.5zM414 1505v183l293 170l292 -170v-183l-292 176z" />
<glyph unicode="&#xdc;" horiz-adv-x="1413" d="M152 520v903h233v-907q0 -162 85 -244t237 -82q153 0 238 82t85 244v907h234v-903q0 -132 -45 -235.5t-123.5 -168t-177.5 -97.5t-213 -33t-213 33t-175.5 97.5t-120.5 168t-44 235.5zM408 1690q0 51 35 86.5t87 35.5q51 0 87 -35.5t36 -86.5q0 -52 -36 -87.5t-87 -35.5 q-52 0 -87 35t-35 88zM760 1690q0 51 35.5 86.5t87.5 35.5q51 0 87 -35.5t36 -86.5q0 -52 -36 -87.5t-87 -35.5q-53 0 -88 35.5t-35 87.5z" />
<glyph unicode="&#xdd;" horiz-adv-x="1239" d="M31 1423h260l330 -698l329 698h258l-471 -907v-516h-233v516zM379 1505v172l452 250v-198z" />
<glyph unicode="&#xde;" horiz-adv-x="1218" d="M154 0v1425h231v-288h260q123 0 220.5 -33.5t158.5 -92t93 -134.5t32 -164q0 -63 -16.5 -122t-54.5 -114t-95 -96t-143.5 -65.5t-194.5 -24.5h-258v-291h-233zM387 473h258q132 0 198 64t66 176q0 113 -66 177t-198 64h-258v-481z" />
<glyph unicode="&#xdf;" horiz-adv-x="1431" d="M111 0v1151q0 90 30 166.5t89.5 136.5t159 94.5t228.5 34.5q113 0 205 -30t149 -80t87.5 -112.5t30.5 -129.5q0 -72 -28.5 -133.5t-69 -102t-81.5 -74.5t-69.5 -64.5t-28.5 -57.5q0 -37 44 -67t171 -73q154 -52 223.5 -134.5t69.5 -207.5q0 -152 -110.5 -244.5 t-303.5 -92.5q-187 0 -303 98t-129 276h238q3 -88 52.5 -138t141.5 -50q174 0 174 133q0 67 -40 107t-146 75q-167 56 -242 120.5t-75 164.5q0 48 20.5 93t51.5 77.5t67 67.5t67 64.5t51.5 67t20.5 76.5q0 84 -65 130.5t-177 46.5q-146 0 -208 -67.5t-62 -201.5v-1120h-233z " />
<glyph unicode="&#xe0;" d="M76 569q0 128 41.5 237t113 183t169 116t208.5 42q132 0 232 -52t159 -130v163h236v-1128h-236v168q-60 -80 -161.5 -133t-233.5 -53q-146 0 -266 73.5t-191 208.5t-71 305zM315 569q0 -175 102 -280t240 -105q67 0 128 25.5t109 73t76.5 120.5t28.5 162q0 88 -28.5 161 t-76.5 120t-109 72.5t-128 25.5q-139 0 -240.5 -100.5t-101.5 -274.5zM453 1432v198l452 -250v-172z" />
<glyph unicode="&#xe1;" d="M76 569q0 128 41.5 237t113 183t169 116t208.5 42q132 0 232 -52t159 -130v163h236v-1128h-236v168q-60 -80 -161.5 -133t-233.5 -53q-146 0 -266 73.5t-191 208.5t-71 305zM315 569q0 -175 102 -280t240 -105q67 0 128 25.5t109 73t76.5 120.5t28.5 162q0 88 -28.5 161 t-76.5 120t-109 72.5t-128 25.5q-139 0 -240.5 -100.5t-101.5 -274.5zM453 1208v172l452 250v-198z" />
<glyph unicode="&#xe2;" d="M76 569q0 128 41.5 237t113 183t169 116t208.5 42q132 0 232 -52t159 -130v163h236v-1128h-236v168q-60 -80 -161.5 -133t-233.5 -53q-146 0 -266 73.5t-191 208.5t-71 305zM315 569q0 -175 102 -280t240 -105q67 0 128 25.5t109 73t76.5 120.5t28.5 162q0 88 -28.5 161 t-76.5 120t-109 72.5t-128 25.5q-139 0 -240.5 -100.5t-101.5 -274.5zM401 1208v183l293 170l293 -170v-183l-293 176z" />
<glyph unicode="&#xe3;" d="M76 569q0 128 41.5 237t113 183t169 116t208.5 42q132 0 232 -52t159 -130v163h236v-1128h-236v168q-60 -80 -161.5 -133t-233.5 -53q-146 0 -266 73.5t-191 208.5t-71 305zM315 569q0 -175 102 -280t240 -105q67 0 128 25.5t109 73t76.5 120.5t28.5 162q0 88 -28.5 161 t-76.5 120t-109 72.5t-128 25.5q-139 0 -240.5 -100.5t-101.5 -274.5zM360 1245q17 118 78.5 179t153.5 61q37 0 72 -14t57.5 -31t51.5 -31t56 -14q35 0 59 21.5t30 64.5h131q-17 -118 -78.5 -179t-153.5 -61q-37 0 -72 14.5t-57.5 31.5t-51.5 31.5t-56 14.5 q-35 0 -58.5 -22.5t-29.5 -65.5h-132z" />
<glyph unicode="&#xe4;" d="M76 569q0 128 41.5 237t113 183t169 116t208.5 42q132 0 232 -52t159 -130v163h236v-1128h-236v168q-60 -80 -161.5 -133t-233.5 -53q-146 0 -266 73.5t-191 208.5t-71 305zM315 569q0 -175 102 -280t240 -105q67 0 128 25.5t109 73t76.5 120.5t28.5 162q0 88 -28.5 161 t-76.5 120t-109 72.5t-128 25.5q-139 0 -240.5 -100.5t-101.5 -274.5zM395 1393q0 51 35.5 87t87.5 36q51 0 87 -36t36 -87q0 -52 -36 -87.5t-87 -35.5q-52 0 -87.5 35t-35.5 88zM748 1393q0 51 35 87t87 36q51 0 87 -36t36 -87q0 -52 -36 -87.5t-87 -35.5q-52 0 -87 35 t-35 88z" />
<glyph unicode="&#xe5;" d="M76 569q0 128 41.5 237t113 183t169 116t208.5 42q132 0 232 -52t159 -130v163h236v-1128h-236v168q-60 -80 -161.5 -133t-233.5 -53q-146 0 -266 73.5t-191 208.5t-71 305zM315 569q0 -175 102 -280t240 -105q67 0 128 25.5t109 73t76.5 120.5t28.5 162q0 88 -28.5 161 t-76.5 120t-109 72.5t-128 25.5q-139 0 -240.5 -100.5t-101.5 -274.5zM465 1462q0 102 66 164t163 62q99 0 165.5 -62t66.5 -164q0 -100 -66.5 -161.5t-165.5 -61.5q-97 0 -163 61.5t-66 161.5zM596 1464q0 -45 28.5 -74.5t69.5 -29.5q42 0 71.5 29.5t29.5 74.5 q0 46 -29.5 75.5t-71.5 29.5q-41 0 -69.5 -29.5t-28.5 -75.5z" />
<glyph unicode="&#xe6;" horiz-adv-x="2222" d="M76 569q0 257 155 417.5t390 160.5q246 0 393 -178v159h194v-159q86 95 184.5 136.5t223.5 41.5q234 0 382 -155.5t148 -395.5q0 -59 -8 -111h-899q12 -97 65.5 -168.5t124 -105t146.5 -33.5q112 0 185 43t102 115h254q-50 -156 -181 -255t-319 -99q-124 0 -232.5 52 t-175.5 136v-170h-200v170q-69 -84 -172.5 -136t-227.5 -52q-226 0 -379 165t-153 422zM315 569q0 -175 102 -280t240 -105q67 0 128 25.5t109 73t76.5 120.5t28.5 162q0 88 -28.5 161t-76.5 120t-109 72.5t-128 25.5q-139 0 -240.5 -100.5t-101.5 -274.5zM1239 653h666 q-3 133 -95.5 215t-232.5 82q-128 0 -223 -82t-115 -215z" />
<glyph unicode="&#xe7;" horiz-adv-x="1228" d="M76 565q0 262 154 422t399 160q205 0 338.5 -97.5t181.5 -277.5h-252q-30 84 -98 131t-170 47q-143 0 -228.5 -101.5t-85.5 -283.5q0 -183 85.5 -285t228.5 -102q203 0 268 178h252q-44 -156 -160 -254.5t-291 -115.5v-84q118 0 192.5 -56.5t74.5 -158.5t-74 -163 t-186 -61h-271v148h223q58 0 86.5 16.5t28.5 59.5t-28 59t-87 16h-112v226q-212 27 -340.5 182t-128.5 395z" />
<glyph unicode="&#xe8;" horiz-adv-x="1263" d="M76 565q0 264 155.5 423t407.5 159q243 0 396 -153.5t153 -401.5q0 -63 -8 -115h-863q12 -137 101.5 -218t220.5 -81q189 0 266 158h252q-50 -156 -185 -255t-333 -99q-246 0 -404.5 160.5t-158.5 422.5zM319 666h625q-3 128 -92.5 206t-222.5 78q-121 0 -206.5 -76.5 t-103.5 -207.5zM391 1432v198l453 -250v-172z" />
<glyph unicode="&#xe9;" horiz-adv-x="1263" d="M76 565q0 264 155.5 423t407.5 159q243 0 396 -153.5t153 -401.5q0 -63 -8 -115h-863q12 -137 101.5 -218t220.5 -81q189 0 266 158h252q-50 -156 -185 -255t-333 -99q-246 0 -404.5 160.5t-158.5 422.5zM319 666h625q-3 128 -92.5 206t-222.5 78q-121 0 -206.5 -76.5 t-103.5 -207.5zM391 1208v172l453 250v-198z" />
<glyph unicode="&#xea;" horiz-adv-x="1263" d="M76 565q0 264 155.5 423t407.5 159q243 0 396 -153.5t153 -401.5q0 -63 -8 -115h-863q12 -137 101.5 -218t220.5 -81q189 0 266 158h252q-50 -156 -185 -255t-333 -99q-246 0 -404.5 160.5t-158.5 422.5zM319 666h625q-3 128 -92.5 206t-222.5 78q-121 0 -206.5 -76.5 t-103.5 -207.5zM340 1208v183l293 170l293 -170v-183l-293 176z" />
<glyph unicode="&#xeb;" horiz-adv-x="1263" d="M76 565q0 264 155.5 423t407.5 159q243 0 396 -153.5t153 -401.5q0 -63 -8 -115h-863q12 -137 101.5 -218t220.5 -81q189 0 266 158h252q-50 -156 -185 -255t-333 -99q-246 0 -404.5 160.5t-158.5 422.5zM319 666h625q-3 128 -92.5 206t-222.5 78q-121 0 -206.5 -76.5 t-103.5 -207.5zM334 1393q0 51 35.5 87t87.5 36q51 0 87 -36t36 -87q0 -52 -36 -87.5t-87 -35.5q-53 0 -88 35t-35 88zM686 1393q0 51 35.5 87t87.5 36q51 0 87 -36t36 -87q0 -52 -36 -87.5t-87 -35.5q-53 0 -88 35t-35 88z" />
<glyph unicode="&#xec;" horiz-adv-x="540" d="M29 1432v198l452 -250v-172zM154 0v1128h233v-1128h-233z" />
<glyph unicode="&#xed;" horiz-adv-x="540" d="M29 1208v172l452 250v-198zM154 0v1128h233v-1128h-233z" />
<glyph unicode="&#xee;" horiz-adv-x="540" d="M-23 1208v183l293 170l293 -170v-183l-293 176zM154 0v1128h233v-1128h-233z" />
<glyph unicode="&#xef;" horiz-adv-x="540" d="M-29 1393q0 51 35.5 87t87.5 36q51 0 87 -36t36 -87q0 -52 -36 -87.5t-87 -35.5q-52 0 -87.5 35t-35.5 88zM154 0v1128h233v-1128h-233zM324 1393q0 51 35 87t87 36q51 0 87 -36t36 -87q0 -52 -36 -87.5t-87 -35.5q-52 0 -87 35t-35 88z" />
<glyph unicode="&#xf0;" horiz-adv-x="1302" d="M76 565q0 130 43.5 240t118.5 184.5t176 116t215 41.5q186 0 325 -117q-59 137 -161 256l-252 -82v125l161 53q-76 73 -151 134h237q44 -38 84 -78l256 84v-125l-165 -56q264 -312 264 -692q0 -162 -44.5 -290t-123.5 -210t-184.5 -124.5t-231.5 -42.5 q-121 0 -225.5 41.5t-180 116.5t-118.5 185t-43 240zM315 565q0 -184 94 -285.5t234 -101.5q66 0 127 25t110 72t78 122t29 168q0 182 -99.5 283.5t-240.5 101.5q-139 0 -235.5 -101t-96.5 -284z" />
<glyph unicode="&#xf1;" horiz-adv-x="1329" d="M154 0v1128h233v-129q57 69 146 108.5t190 39.5q205 0 334 -126t129 -355v-666h-232v631q0 152 -75.5 232.5t-206.5 80.5q-132 0 -208.5 -80.5t-76.5 -232.5v-631h-233zM352 1245q17 118 78.5 179t153.5 61q37 0 72 -14t57.5 -31t51.5 -31t56 -14q76 0 88 86h131 q-17 -118 -78 -179t-153 -61q-47 0 -89 23t-79 46t-70 23q-35 0 -58.5 -22.5t-29.5 -65.5h-131z" />
<glyph unicode="&#xf2;" horiz-adv-x="1306" d="M78 565q0 130 44.5 240t122 184.5t183 116t225.5 41.5q161 0 291.5 -70.5t207.5 -204.5t77 -307t-79 -307t-212 -205t-295 -71q-120 0 -224 41.5t-179.5 116.5t-118.5 185t-43 240zM315 565q0 -183 94 -282t234 -99q67 0 128 24t110 70t78.5 120t29.5 167t-28.5 167 t-76.5 119t-108 69t-127 24q-141 0 -237.5 -98.5t-96.5 -280.5zM412 1450v199l452 -250v-172z" />
<glyph unicode="&#xf3;" horiz-adv-x="1306" d="M78 565q0 130 44.5 240t122 184.5t183 116t225.5 41.5q161 0 291.5 -70.5t207.5 -204.5t77 -307t-79 -307t-212 -205t-295 -71q-120 0 -224 41.5t-179.5 116.5t-118.5 185t-43 240zM315 565q0 -183 94 -282t234 -99q67 0 128 24t110 70t78.5 120t29.5 167t-28.5 167 t-76.5 119t-108 69t-127 24q-141 0 -237.5 -98.5t-96.5 -280.5zM412 1227v172l452 250v-199z" />
<glyph unicode="&#xf4;" horiz-adv-x="1306" d="M78 565q0 130 44.5 240t122 184.5t183 116t225.5 41.5q161 0 291.5 -70.5t207.5 -204.5t77 -307t-79 -307t-212 -205t-295 -71q-120 0 -224 41.5t-179.5 116.5t-118.5 185t-43 240zM315 565q0 -183 94 -282t234 -99q67 0 128 24t110 70t78.5 120t29.5 167t-28.5 167 t-76.5 119t-108 69t-127 24q-141 0 -237.5 -98.5t-96.5 -280.5zM360 1227v182l293 170l293 -170v-182l-293 176z" />
<glyph unicode="&#xf5;" horiz-adv-x="1306" d="M78 565q0 130 44.5 240t122 184.5t183 116t225.5 41.5q161 0 291.5 -70.5t207.5 -204.5t77 -307t-79 -307t-212 -205t-295 -71q-120 0 -224 41.5t-179.5 116.5t-118.5 185t-43 240zM315 565q0 -183 94 -282t234 -99q67 0 128 24t110 70t78.5 120t29.5 167t-28.5 167 t-76.5 119t-108 69t-127 24q-141 0 -237.5 -98.5t-96.5 -280.5zM319 1264q17 118 78.5 178.5t153.5 60.5q37 0 72 -14t57.5 -31t51.5 -31t56 -14q35 0 59 21.5t30 64.5h131q-17 -118 -78.5 -178.5t-153.5 -60.5q-37 0 -72 14.5t-57.5 31.5t-51.5 31.5t-56 14.5 q-35 0 -58.5 -22.5t-29.5 -65.5h-132z" />
<glyph unicode="&#xf6;" horiz-adv-x="1306" d="M78 565q0 130 44.5 240t122 184.5t183 116t225.5 41.5q161 0 291.5 -70.5t207.5 -204.5t77 -307t-79 -307t-212 -205t-295 -71q-120 0 -224 41.5t-179.5 116.5t-118.5 185t-43 240zM315 565q0 -183 94 -282t234 -99q67 0 128 24t110 70t78.5 120t29.5 167t-28.5 167 t-76.5 119t-108 69t-127 24q-141 0 -237.5 -98.5t-96.5 -280.5zM354 1411q0 51 35.5 87t87.5 36q51 0 87 -36t36 -87q0 -52 -36 -87.5t-87 -35.5q-53 0 -88 35t-35 88zM707 1411q0 51 35 87t87 36q51 0 87 -36t36 -87q0 -52 -36 -87.5t-87 -35.5q-52 0 -87 35t-35 88z" />
<glyph unicode="&#xf7;" horiz-adv-x="1390" d="M184 643v197h1045v-197h-1045zM561 303q0 63 43.5 106.5t106.5 43.5q62 0 104.5 -43.5t42.5 -106.5t-42.5 -106t-104.5 -43q-63 0 -106.5 43t-43.5 106zM561 1184q0 63 43.5 106t106.5 43q62 0 104.5 -43t42.5 -106t-42.5 -106.5t-104.5 -43.5q-63 0 -106.5 43.5 t-43.5 106.5z" />
<glyph unicode="&#xf8;" horiz-adv-x="1306" d="M57 0l156 170q-135 157 -135 395q0 130 44.5 240t122 184.5t183 116t225.5 41.5q202 0 351 -109l83 90h162l-157 -172q137 -156 137 -391q0 -173 -79 -307t-212 -205t-295 -71q-199 0 -342 106l-82 -88h-162zM315 565q0 -128 54 -225l487 534q-88 70 -207 70 q-141 0 -237.5 -98.5t-96.5 -280.5zM446 248q82 -64 197 -64q67 0 128 24t110 70t78.5 120t29.5 167q0 127 -53 219z" />
<glyph unicode="&#xf9;" horiz-adv-x="1329" d="M143 465v663h232v-628q0 -152 76 -233t206 -81q132 0 208.5 81t76.5 233v628h234v-1128h-234v135q-55 -71 -144 -111t-190 -40q-100 0 -184.5 31.5t-147 90.5t-98 151.5t-35.5 207.5zM424 1432v198l453 -250v-172z" />
<glyph unicode="&#xfa;" horiz-adv-x="1329" d="M143 465v663h232v-628q0 -152 76 -233t206 -81q132 0 208.5 81t76.5 233v628h234v-1128h-234v135q-55 -71 -144 -111t-190 -40q-100 0 -184.5 31.5t-147 90.5t-98 151.5t-35.5 207.5zM424 1208v172l453 250v-198z" />
<glyph unicode="&#xfb;" horiz-adv-x="1329" d="M143 465v663h232v-628q0 -152 76 -233t206 -81q132 0 208.5 81t76.5 233v628h234v-1128h-234v135q-55 -71 -144 -111t-190 -40q-100 0 -184.5 31.5t-147 90.5t-98 151.5t-35.5 207.5zM373 1208v183l293 170l292 -170v-183l-292 176z" />
<glyph unicode="&#xfc;" horiz-adv-x="1329" d="M143 465v663h232v-628q0 -152 76 -233t206 -81q132 0 208.5 81t76.5 233v628h234v-1128h-234v135q-55 -71 -144 -111t-190 -40q-100 0 -184.5 31.5t-147 90.5t-98 151.5t-35.5 207.5zM367 1393q0 51 35 87t87 36q51 0 87 -36t36 -87q0 -52 -36 -87.5t-87 -35.5 q-52 0 -87 35t-35 88zM719 1393q0 51 35.5 87t87.5 36q51 0 87 -36t36 -87q0 -52 -36 -87.5t-87 -35.5q-52 0 -87.5 35t-35.5 88z" />
<glyph unicode="&#xfd;" horiz-adv-x="1191" d="M20 1128h261l317 -860l330 860h241l-692 -1658h-241l229 548zM354 1208v172l453 250v-198z" />
<glyph unicode="&#xfe;" d="M154 -537v2053h233v-588q57 99 158 159t235 60q148 0 268.5 -71t191.5 -204t71 -303q0 -128 -41.5 -238t-112.5 -186.5t-169 -119.5t-208 -43q-133 0 -233.5 62.5t-159.5 166.5v-748h-233zM387 565q0 -89 29 -162t77 -120.5t109 -73t127 -25.5q67 0 128.5 26.5t109.5 74 t77 121.5t29 163q0 174 -101.5 274.5t-242.5 100.5q-139 0 -240.5 -103t-101.5 -276z" />
<glyph unicode="&#xff;" horiz-adv-x="1191" d="M20 1128h261l317 -860l330 860h241l-692 -1658h-241l229 548zM297 1393q0 51 35.5 87t87.5 36q51 0 87 -36t36 -87q0 -52 -36 -87.5t-87 -35.5q-52 0 -87.5 35t-35.5 88zM649 1393q0 51 35.5 87t87.5 36q51 0 87 -36t36 -87q0 -52 -36 -87.5t-87 -35.5q-52 0 -87.5 35 t-35.5 88z" />
<glyph unicode="&#x152;" horiz-adv-x="2209" d="M76 715q0 157 57 294t153.5 231t225.5 148t270 54q328 0 508 -236v217h787v-182h-553v-432h491v-180h-491v-447h553v-182h-787v227q-177 -241 -506 -241q-142 0 -272 54.5t-226 149t-153 231.5t-57 294zM315 715q0 -233 137 -375.5t351 -142.5t350.5 142.5t136.5 375.5 q0 232 -136 373t-351 141t-351.5 -141t-136.5 -373z" />
<glyph unicode="&#x153;" horiz-adv-x="2174" d="M76 565q0 130 45 240t122.5 184.5t183.5 116t226 41.5q139 0 257.5 -61.5t193.5 -172.5q71 112 186 173t260 61q242 0 395.5 -153t153.5 -398q0 -59 -8 -111h-862q9 -141 94 -224t217 -83q191 0 268 158h252q-50 -156 -186 -255t-334 -99q-141 0 -254 61.5t-184 175.5 q-76 -113 -196.5 -175t-262.5 -62q-121 0 -225.5 41.5t-180 116.5t-118.5 185t-43 240zM315 565q0 -184 94 -285.5t234 -101.5q66 0 127 25t110 72t78 122t29 168q0 182 -99.5 283.5t-240.5 101.5q-139 0 -235.5 -101t-96.5 -284zM1231 645h624q-3 138 -92.5 221.5 t-222.5 83.5q-125 0 -211 -82.5t-98 -222.5z" />
<glyph unicode="&#x178;" horiz-adv-x="1239" d="M31 1423h260l330 -698l329 698h258l-471 -907v-516h-233v516zM322 1690q0 51 35 86.5t87 35.5q51 0 87 -35.5t36 -86.5q0 -52 -36 -87.5t-87 -35.5q-52 0 -87 35t-35 88zM674 1690q0 51 35.5 86.5t87.5 35.5q51 0 87 -35.5t36 -86.5q0 -52 -36 -87.5t-87 -35.5 q-53 0 -88 35.5t-35 87.5z" />
<glyph unicode="&#x2c6;" horiz-adv-x="626" d="M20 1208v183l293 170l293 -170v-183l-293 176z" />
<glyph unicode="&#x2dc;" horiz-adv-x="729" d="M20 1245q17 118 78.5 179t153.5 61q37 0 72 -14t57.5 -31t51.5 -31t56 -14q35 0 59 21.5t30 64.5h131q-17 -118 -78.5 -179t-153.5 -61q-37 0 -72 14.5t-57.5 31.5t-51.5 31.5t-56 14.5q-35 0 -58.5 -22.5t-29.5 -65.5h-132z" />
<glyph unicode="&#x2000;" horiz-adv-x="992" />
<glyph unicode="&#x2001;" horiz-adv-x="1985" />
<glyph unicode="&#x2002;" horiz-adv-x="992" />
<glyph unicode="&#x2003;" horiz-adv-x="1985" />
<glyph unicode="&#x2004;" horiz-adv-x="661" />
<glyph unicode="&#x2005;" horiz-adv-x="496" />
<glyph unicode="&#x2006;" horiz-adv-x="330" />
<glyph unicode="&#x2007;" horiz-adv-x="330" />
<glyph unicode="&#x2008;" horiz-adv-x="248" />
<glyph unicode="&#x2009;" horiz-adv-x="397" />
<glyph unicode="&#x200a;" horiz-adv-x="110" />
<glyph unicode="&#x2010;" horiz-adv-x="1198" d="M178 643v197h842v-197h-842z" />
<glyph unicode="&#x2011;" horiz-adv-x="1198" d="M178 643v197h842v-197h-842z" />
<glyph unicode="&#x2012;" horiz-adv-x="1198" d="M178 643v197h842v-197h-842z" />
<glyph unicode="&#x2013;" horiz-adv-x="1449" d="M178 643v197h1096v-197h-1096z" />
<glyph unicode="&#x2014;" horiz-adv-x="1892" d="M178 643v197h1536v-197h-1536z" />
<glyph unicode="&#x2018;" horiz-adv-x="495" d="M51 936l215 487h164l-125 -487h-254z" />
<glyph unicode="&#x2019;" horiz-adv-x="495" d="M66 936l124 487h254l-215 -487h-163z" />
<glyph unicode="&#x201a;" horiz-adv-x="440" d="M10 -211l125 487h254l-215 -487h-164z" />
<glyph unicode="&#x201c;" horiz-adv-x="864" d="M51 936l215 487h164l-125 -487h-254zM420 936l215 487h164l-125 -487h-254z" />
<glyph unicode="&#x201d;" horiz-adv-x="864" d="M66 936l124 487h254l-215 -487h-163zM434 936l125 487h254l-215 -487h-164z" />
<glyph unicode="&#x201e;" horiz-adv-x="813" d="M10 -211l125 487h254l-215 -487h-164zM383 -211l125 487h254l-215 -487h-164z" />
<glyph unicode="&#x2022;" horiz-adv-x="946" d="M205 682q0 113 77.5 190.5t188.5 77.5q114 0 192 -77t78 -191q0 -112 -78 -189t-192 -77q-111 0 -188.5 77t-77.5 189z" />
<glyph unicode="&#x2026;" horiz-adv-x="1306" d="M98 135q0 63 43.5 106.5t106.5 43.5q62 0 104.5 -43.5t42.5 -106.5t-42.5 -106t-104.5 -43q-63 0 -106.5 43t-43.5 106zM510 135q0 63 43 106.5t106 43.5q62 0 105 -43.5t43 -106.5t-43 -106t-105 -43q-63 0 -106 43t-43 106zM924 135q0 63 43 106.5t106 43.5 q62 0 105 -43.5t43 -106.5t-43 -106t-105 -43q-63 0 -106 43t-43 106z" />
<glyph unicode="&#x202f;" horiz-adv-x="397" />
<glyph unicode="&#x2039;" horiz-adv-x="608" d="M92 604l189 359h225l-197 -359l197 -358h-225z" />
<glyph unicode="&#x203a;" horiz-adv-x="608" d="M102 246l195 358l-195 359h224l190 -359l-190 -358h-224z" />
<glyph unicode="&#x205f;" horiz-adv-x="496" />
<glyph unicode="&#x20ac;" horiz-adv-x="1642" d="M53 465v160h152q-4 58 -4 90t4 90h-152v160h189q74 217 260.5 347t425.5 130q226 0 402.5 -111.5t256.5 -316.5h-280q-57 106 -153.5 160.5t-225.5 54.5q-149 0 -263 -69.5t-173 -194.5h436v-160h-482q-6 -43 -6 -90t6 -90h482v-160h-436q60 -127 173.5 -196.5 t262.5 -69.5q129 0 225.5 54.5t153.5 160.5h280q-80 -205 -256.5 -315.5t-402.5 -110.5q-240 0 -426.5 129.5t-259.5 347.5h-189z" />
<glyph unicode="&#x2122;" horiz-adv-x="1660" d="M49 1303v139h502v-139h-162l2 -582h-184l4 582h-162zM670 721v721h237l197 -506l207 506h225v-721h-168l-4 487l-203 -487h-125l-200 498v-498h-166z" />
<glyph unicode="&#x25fc;" horiz-adv-x="1126" d="M0 0v1126h1126v-1126h-1126z" />
<glyph unicode="&#xfb01;" horiz-adv-x="1220" d="M49 938v190h133v80q0 194 103 283.5t325 89.5v-195q-106 0 -149 -40.5t-43 -137.5v-80h649v-1128h-233v938h-416v-938h-236v938h-133zM803 1427q0 63 42.5 106.5t104.5 43.5q63 0 106.5 -43.5t43.5 -106.5t-43.5 -106t-106.5 -43q-62 0 -104.5 43t-42.5 106z" />
<glyph unicode="&#xfb02;" horiz-adv-x="1220" d="M49 938v190h133v80q0 194 103 283.5t325 89.5v-195q-106 0 -149 -40.5t-43 -137.5v-80h209v-190h-209v-938h-236v938h-133zM834 0v1516h233v-1516h-233z" />
</font>
</defs>
</svg>
