<?xml version="1.0" standalone="no"?>
<!DOCTYPE svg PUBLIC "-//W3C//DTD SVG 1.1//EN" "http://www.w3.org/Graphics/SVG/1.1/DTD/svg11.dtd" >
<svg xmlns="http://www.w3.org/2000/svg" xmlns:xlink="http://www.w3.org/1999/xlink" version="1.1">
<metadata></metadata>
<defs>
<font id="dunbartallbold" horiz-adv-x="1288" >
<font-face units-per-em="2048" ascent="1597" descent="-451" />
<missing-glyph horiz-adv-x="348" />
<glyph unicode="&#xfb01;" horiz-adv-x="1157" d="M27 891v285h135v55q0 139 44 222t112.5 127t155.5 57.5t173 13.5v-291q-63 0 -105 -27.5t-42 -128.5v-28h121v-285h-121v-891h-338v891h-135zM731 1325v272h344v-272h-344zM733 0v1176h338v-1176h-338z" />
<glyph unicode="&#xfb02;" horiz-adv-x="1157" d="M27 891v285h135v55q0 139 44 222t112.5 127t155.5 57.5t173 13.5v-291q-63 0 -105 -27.5t-42 -128.5v-28h121v-285h-121v-891h-338v891h-135zM733 0v1597h338v-1597h-338z" />
<glyph unicode="&#xfb03;" horiz-adv-x="1746" d="M27 891v285h135v55q0 139 44 222t113.5 127t157.5 57.5t174 13.5v-291q-63 0 -107 -27.5t-44 -128.5v-28h252v55q0 139 44 222t112.5 127t155.5 57.5t173 13.5v-291q-63 0 -105 -27.5t-42 -128.5v-28h120v-285h-120v-891h-338v891h-252v-891h-338v891h-135zM1321 1325 v272h344v-272h-344zM1323 0v1176h338v-1176h-338z" />
<glyph unicode="&#xfb04;" horiz-adv-x="1746" d="M27 891v285h135v55q0 139 44 222t113.5 127t157.5 57.5t174 13.5v-291q-63 0 -107 -27.5t-44 -128.5v-28h252v55q0 139 44 222t112.5 127t155.5 57.5t173 13.5v-291q-63 0 -105 -27.5t-42 -128.5v-28h120v-285h-120v-891h-338v891h-252v-891h-338v891h-135zM1323 0v1597 h338v-1597h-338z" />
<glyph horiz-adv-x="0" />
<glyph unicode="&#xd;" horiz-adv-x="681" />
<glyph unicode=" "  horiz-adv-x="348" />
<glyph unicode="&#x09;" horiz-adv-x="348" />
<glyph unicode="&#xa0;" horiz-adv-x="348" />
<glyph unicode="!" horiz-adv-x="686" d="M135 1528h416l-64 -1075h-288zM154 0v315h376v-315h-376z" />
<glyph unicode="&#x22;" horiz-adv-x="1167" d="M98 899l140 629h374l-252 -629h-262zM579 899l140 629h374l-252 -629h-262z" />
<glyph unicode="#" horiz-adv-x="1652" d="M94 360v267h314l51 274h-285v266h336l70 361h276l-70 -361h256l70 361h277l-70 -361h240v-266h-291l-54 -274h263v-267h-314l-69 -360h-275l70 360h-258l-70 -360h-274l69 360h-262zM682 627h258l51 274h-256z" />
<glyph unicode="$" horiz-adv-x="1105" d="M76 1135q0 125 99 231.5t294 134.5v240h211v-232q70 -6 144.5 -22.5t138.5 -48.5v-299q-63 41 -146.5 65.5t-171.5 24.5q-100 0 -146 -33t-46 -63q0 -57 59 -110.5t172 -133.5q98 -76 168 -134.5t113 -110.5t63.5 -108.5t20.5 -127.5q0 -84 -30 -151t-79 -115 t-116.5 -79.5t-143.5 -48.5v-252h-211v234q-106 2 -210.5 23.5t-174.5 64.5v305q96 -57 184 -83.5t197 -26.5q104 0 163.5 39.5t59.5 91.5q0 57 -71.5 117.5t-204.5 154.5q-193 135 -264.5 231.5t-71.5 221.5z" />
<glyph unicode="%" horiz-adv-x="1863" d="M47 1087v56q0 190 110.5 287.5t272.5 97.5q166 0 273.5 -97.5t107.5 -287.5v-56q0 -188 -108.5 -285t-272.5 -97t-273.5 97t-109.5 285zM293 0l999 1528h283l-1004 -1528h-278zM307 1090q0 -104 35 -155.5t88 -51.5q51 0 86 51.5t35 155.5v51q0 104 -34 156.5t-87 52.5 t-88 -52.5t-35 -156.5v-51zM1053 383v55q0 190 110.5 287.5t272.5 97.5q164 0 272.5 -97t108.5 -288v-55q0 -188 -109 -285.5t-272 -97.5q-162 0 -272.5 97.5t-110.5 285.5zM1313 385q0 -104 34.5 -155.5t88.5 -51.5q51 0 84.5 51.5t33.5 155.5v51q0 104 -32.5 156.5 t-85.5 52.5t-88 -52t-35 -157v-51z" />
<glyph unicode="&#x26;" horiz-adv-x="1681" d="M74 352q0 170 111.5 273.5t287.5 203.5q-94 98 -153.5 176t-57.5 183q0 84 40 155.5t108.5 123t163 81t198.5 29.5q231 0 372.5 -103.5t141.5 -271.5q0 -113 -78 -201t-229 -176q-14 -8 -27.5 -15t-25.5 -15q55 -57 115.5 -123t123.5 -133q51 53 104.5 109.5t106.5 113.5 l205 -234q-55 -55 -106.5 -109t-102.5 -106q88 -94 160 -173t110 -120l-8 -20h-379q-16 14 -44.5 44t-65.5 69q-104 -74 -229 -118t-287 -44q-268 2 -411.5 112.5t-143.5 288.5zM473 389q0 -66 60.5 -111t140.5 -47q63 0 128.5 28t131.5 75q-72 80 -145.5 158.5 t-131.5 142.5q-96 -66 -140 -121t-44 -125zM627 1186q0 -63 30.5 -105.5t83.5 -97.5q104 63 147.5 108.5t43.5 102.5q0 51 -40 93t-116 42q-61 0 -105 -40t-44 -103z" />
<glyph unicode="'" horiz-adv-x="692" d="M100 899l140 629h374l-252 -629h-262z" />
<glyph unicode="(" horiz-adv-x="866" d="M145 596v41q0 182 42 335.5t105.5 275.5t140.5 214.5t149 151.5l188 -189q-49 -51 -100.5 -129.5t-94.5 -180t-70.5 -224.5t-27.5 -260v-29q0 -135 27.5 -259t69.5 -225.5t94.5 -179t101.5 -126.5l-188 -191q-72 57 -149 148.5t-140.5 214t-105.5 277.5t-42 335z" />
<glyph unicode=")" horiz-adv-x="866" d="M96 -188q49 49 101.5 126.5t94.5 179t69.5 225.5t27.5 259v29q0 137 -27.5 260t-70.5 224.5t-95.5 180t-99.5 129.5l189 189q70 -59 147.5 -151.5t141 -214.5t105.5 -275.5t42 -335.5v-41q0 -180 -42 -335t-105.5 -277.5t-141.5 -214t-149 -148.5z" />
<glyph unicode="*" horiz-adv-x="794" d="M43 1165l68 213l239 -141l-63 291h223l-61 -287l233 139l70 -213l-267 -26l224 -199l-181 -129l-127 283l-129 -287l-182 131l225 199z" />
<glyph unicode="+" horiz-adv-x="1286" d="M76 586v270h413v424h308v-424h413v-270h-413v-455h-308v455h-413z" />
<glyph unicode="," horiz-adv-x="641" d="M45 -315l129 616h381l-246 -616h-264z" />
<glyph unicode="-" horiz-adv-x="827" d="M82 498v305h663v-305h-663z" />
<glyph unicode="." horiz-adv-x="577" d="M98 0v334h381v-334h-381z" />
<glyph unicode="/" horiz-adv-x="1177" d="M-160 -451l979 2048h336l-983 -2048h-332z" />
<glyph unicode="0" horiz-adv-x="1382" d="M80 709v106q0 188 47 331.5t128 239t193.5 143.5t241.5 48q133 0 246 -48t193.5 -143.5t127 -238.5t46.5 -332v-106q0 -186 -46.5 -328.5t-128 -238t-194.5 -143.5t-244 -48q-129 0 -241.5 48t-193.5 143.5t-128 237.5t-47 329zM418 705q0 -242 77.5 -358t194.5 -116 q119 0 196 116t77 358v106q0 242 -76 358.5t-197 116.5q-117 0 -194.5 -116.5t-77.5 -358.5v-106z" />
<glyph unicode="1" horiz-adv-x="804" d="M70 774v434l348 320h266v-1528h-340v1042z" />
<glyph unicode="2" horiz-adv-x="1230" d="M31 47q35 43 116.5 144.5t171 211t169 209t110.5 138.5q82 100 117 168.5t35 146.5q0 86 -69 151.5t-185 65.5q-76 0 -158 -27.5t-170 -97.5l2 338q86 43 182.5 62.5t188.5 19.5q127 0 231.5 -39t177 -104.5t112.5 -155.5t40 -195q0 -150 -68.5 -254t-169.5 -227 q-39 -49 -118.5 -141t-159.5 -180h600l-115 -281h-1018z" />
<glyph unicode="3" horiz-adv-x="1101" d="M41 27v286q31 -20 73 -36.5t84 -26.5t80.5 -16.5t63.5 -6.5q166 -2 269.5 63.5t103.5 168.5q0 102 -97.5 162.5t-244.5 60.5h-103l13 266h90q115 0 189.5 55.5t74.5 135.5q0 76 -67.5 120t-178.5 44q-61 0 -132 -11.5t-136 -44.5l20 289q57 18 130 29.5t184 11.5 t207 -28.5t164.5 -81t107.5 -125t39 -156.5q-2 -100 -57.5 -192.5t-149.5 -149.5q123 -51 204 -156.5t81 -241.5q0 -106 -45 -198t-125 -157.5t-194 -102.5t-249 -37q-43 0 -97 4t-108.5 12t-105.5 23.5t-88 36.5z" />
<glyph unicode="4" horiz-adv-x="1316" d="M18 324l799 1204h287v-993h190l-75 -275h-115v-260h-338v260h-721zM442 535h324v493z" />
<glyph unicode="5" horiz-adv-x="1236" d="M51 41v289q88 -47 184.5 -72t213.5 -25q152 0 249 75t97 196q0 104 -103.5 175t-279.5 71q-80 0 -149.5 -11.5t-135.5 -31.5l192 821h875l-88 -289h-557l-62 -229h18.5h18.5q152 0 267.5 -37t192.5 -103.5t117 -159t40 -202.5q0 -123 -48.5 -225.5t-138.5 -176 t-217.5 -114.5t-287.5 -41q-88 0 -201 22.5t-197 67.5z" />
<glyph unicode="6" horiz-adv-x="1286" d="M43 502q0 127 50 259t131 261t183.5 257t206.5 249h422q-135 -143 -266 -292t-231 -286l6 -4q51 27 106.5 41t118.5 14q100 0 188.5 -38.5t154 -106.5t103 -159t37.5 -193q0 -113 -44 -214.5t-123.5 -176t-191.5 -118.5t-245 -44q-129 0 -240.5 38t-192.5 108.5t-127 173 t-46 231.5zM379 494q0 -106 80 -184.5t190 -78.5q111 0 188.5 78t77.5 185q0 111 -77.5 187.5t-188.5 76.5t-190.5 -77t-79.5 -187z" />
<glyph unicode="7" horiz-adv-x="1226" d="M45 1225l92 303h1082l-654 -1528h-375l535 1225h-680z" />
<glyph unicode="8" horiz-adv-x="1269" d="M27 442q0 127 68.5 229.5t195.5 162.5q-88 53 -136.5 135t-48.5 178q0 88 36 167t103.5 137t166 92t221.5 34q127 0 225 -34t166 -92t102.5 -137t34.5 -167q0 -96 -47 -178t-135 -135q125 -59 194.5 -163t69.5 -229q0 -106 -42 -197t-121 -155.5t-192.5 -101.5 t-254.5 -37t-254 37t-190.5 101.5t-119.5 155.5t-42 197zM360 463q0 -104 81 -176t192 -72q115 0 195.5 71.5t80.5 176.5q0 104 -80.5 173t-195.5 69q-111 0 -192 -69t-81 -173zM428 1118q0 -82 60.5 -139t144.5 -57q82 0 144.5 57t62.5 139t-61.5 135.5t-145.5 53.5 t-144.5 -53.5t-60.5 -135.5z" />
<glyph unicode="9" horiz-adv-x="1286" d="M33 1024q0 113 44 214t124 176t192.5 119t245.5 44q129 0 240.5 -38t192.5 -108.5t127 -173t46 -231.5q0 -127 -50 -259t-132 -261t-184.5 -257t-206.5 -249h-422q137 143 268 292.5t230 285.5l-5 4q-51 -27 -106 -41.5t-119 -14.5q-100 0 -189 39t-154.5 106.5 t-103.5 159t-38 193.5zM371 1034q0 -111 78.5 -187.5t189.5 -76.5q109 0 188.5 77t79.5 187q0 106 -79.5 184t-188.5 78q-111 0 -189.5 -77.5t-78.5 -184.5z" />
<glyph unicode=":" horiz-adv-x="561" d="M100 0v344h363v-344h-363zM100 727v344h363v-344h-363z" />
<glyph unicode=";" horiz-adv-x="638" d="M47 -313l113 579h368l-206 -579h-275zM162 727v344h362v-344h-362z" />
<glyph unicode="&#x3c;" horiz-adv-x="1148" d="M43 479v277l1061 495v-299l-772 -331l772 -324v-309z" />
<glyph unicode="=" horiz-adv-x="1153" d="M74 342v248h1007v-248h-1007zM74 801v248h1007v-248h-1007z" />
<glyph unicode="&#x3e;" horiz-adv-x="1148" d="M45 -12v309l774 324l-774 331v299l1063 -495v-277z" />
<glyph unicode="?" horiz-adv-x="1148" d="M106 1456q94 51 199 77t205 26q246 0 392.5 -132.5t146.5 -341.5q0 -104 -31 -187t-82 -142.5t-122 -96t-150 -51.5v-190h-312v403h72q117 0 206 58.5t89 181.5q0 84 -76 150.5t-217 66.5q-76 0 -153.5 -23.5t-159.5 -80.5zM346 0v283h324v-283h-324z" />
<glyph unicode="@" horiz-adv-x="2045" d="M82 573q0 190 67.5 361.5t191.5 299.5t301 203.5t392 75.5q213 0 386 -71.5t295 -191.5t188.5 -279.5t66.5 -331.5q0 -160 -40 -271.5t-101.5 -179t-134 -98.5t-138.5 -31q-106 0 -173.5 46.5t-88.5 115.5q-61 -70 -147 -117t-191 -49q-102 -2 -191 32t-153.5 97.5 t-101.5 152.5t-37 193q0 109 38 199t103.5 154.5t153.5 100.5t188 38t186.5 -40t149.5 -112v101h252v-647q0 -70 23.5 -83.5t42.5 -13.5q23 0 56.5 23.5t64 74t53 129t22.5 187.5q0 141 -54 272t-154.5 230.5t-244 160t-319.5 60.5q-178 0 -324.5 -66.5t-249 -176 t-158.5 -252t-56 -294.5q0 -160 56 -308t162.5 -262t261.5 -181.5t347 -67.5q86 0 175 11.5t172 33t157 52t127 69.5l78 -131q-59 -43 -142.5 -78t-176.5 -58.5t-193.5 -35.5t-196.5 -12q-223 0 -406.5 73.5t-312.5 203.5t-200.5 307.5t-71.5 381.5zM770 530q0 -117 72 -174 t164 -57q96 0 163.5 71.5t67.5 168.5q0 86 -64.5 157.5t-166.5 71.5q-92 0 -164 -60.5t-72 -177.5z" />
<glyph unicode="A" horiz-adv-x="1552" d="M4 0l592 1528h360l592 -1528h-391l-82 227h-610l-82 -227h-379zM569 514h404l-201 559z" />
<glyph unicode="B" horiz-adv-x="1234" d="M96 0v1528h561q129 0 219.5 -31t144.5 -85t77.5 -128t23.5 -158q0 -88 -45 -173t-127 -142q111 -59 173.5 -161.5t62.5 -225.5q0 -82 -30 -159t-89 -135t-151.5 -94t-215.5 -36h-604zM461 291h127q135 0 183 49t48 129q0 94 -59 140t-176 46h-123v-364zM461 907h102 q113 0 173.5 42t60.5 124q0 78 -48.5 121t-179.5 43h-108v-330z" />
<glyph unicode="C" horiz-adv-x="1277" d="M43 766q0 166 62.5 314.5t174 257t265 172t334.5 63.5q88 0 170.5 -17.5t156.5 -52.5v-348q-63 41 -142 61.5t-163 20.5q-102 0 -192.5 -38t-157 -101.5t-104 -149.5t-37.5 -180q0 -96 37.5 -184t104 -152.5t157 -102.5t192.5 -38q84 0 163 20.5t142 61.5v-350 q-74 -35 -156.5 -51.5t-170.5 -16.5q-180 0 -334 63.5t-265.5 173t-174 258t-62.5 316.5z" />
<glyph unicode="D" horiz-adv-x="1423" d="M96 0v1528h461q158 0 305.5 -44t259 -136.5t179 -237.5t67.5 -344q0 -203 -66.5 -348.5t-177 -237.5t-257 -136t-306.5 -44h-465zM461 330h117q84 0 161.5 26.5t136 81t93.5 137t35 191.5t-35 189.5t-93.5 134t-136 81t-161.5 27.5h-117v-868z" />
<glyph unicode="E" horiz-adv-x="1077" d="M96 0v1528h885v-322h-520v-280h467v-293h-467v-311h536v-322h-901z" />
<glyph unicode="F" horiz-adv-x="1083" d="M96 0v1528h932v-322h-567v-325h497v-322h-497v-559h-365z" />
<glyph unicode="G" horiz-adv-x="1705" d="M43 766q0 168 65.5 316.5t179 258t269.5 173t334 63.5q166 0 318.5 -59.5t258.5 -155.5l-233 -260q-68 68 -157 104.5t-187 36.5q-102 0 -190.5 -38t-153 -102.5t-101 -151.5t-36.5 -185q0 -100 36.5 -188.5t101 -153t152.5 -102t191 -37.5q139 0 243.5 84t143.5 209 h-377l121 292h643v-102q0 -172 -60.5 -321.5t-164 -259t-245.5 -173t-304 -63.5q-178 0 -334 64.5t-269.5 174t-179 259t-65.5 317.5z" />
<glyph unicode="H" horiz-adv-x="1429" d="M96 0v1528h365v-549h508v549h364v-1528h-364v649h-508v-649h-365z" />
<glyph unicode="I" horiz-adv-x="557" d="M96 0v1528h365v-1528h-365z" />
<glyph unicode="J" horiz-adv-x="800" d="M18 0v340q39 -20 80 -31.5t78 -11.5q76 0 120 65.5t44 231.5v934h365v-1067q0 -231 -108 -364.5t-368 -133.5q-57 0 -111.5 8.5t-99.5 28.5z" />
<glyph unicode="K" horiz-adv-x="1439" d="M96 0v1528h365v-672l471 672h422l-539 -725l594 -803h-463l-485 692v-692h-365z" />
<glyph unicode="L" horiz-adv-x="1007" d="M96 0v1528h365v-1198h516v-330h-881z" />
<glyph unicode="M" horiz-adv-x="1843" d="M96 0v1528h375l465 -662l440 662h371v-1528h-361v856l3 72l-441 -635h-35l-458 641l2 -76v-858h-361z" />
<glyph unicode="N" horiz-adv-x="1570" d="M96 0v1528h350l664 -914v914h365v-1528h-349l-665 911v-911h-365z" />
<glyph unicode="O" horiz-adv-x="1779" d="M43 766q0 168 65.5 316.5t179 258t269.5 173t334 63.5q176 0 331.5 -63.5t269.5 -173t179.5 -258t65.5 -316.5t-65.5 -317.5t-179.5 -259t-269.5 -174t-331.5 -64.5q-178 0 -334 64.5t-269.5 174t-179 259t-65.5 317.5zM410 764q0 -98 36.5 -186.5t101 -153t152.5 -102 t191 -37.5q100 0 188 37.5t152.5 102t101.5 153t37 186.5q0 100 -37 187t-101.5 151.5t-152.5 102.5t-188 38q-102 0 -190.5 -38t-153 -102.5t-101 -151.5t-36.5 -187z" />
<glyph unicode="P" horiz-adv-x="1220" d="M96 0v1528h449q123 0 239.5 -24.5t206.5 -86t145.5 -167t55.5 -263.5q0 -147 -60.5 -252.5t-153.5 -172t-209.5 -98.5t-229.5 -32h-78v-432h-365zM461 750h84q129 0 205.5 62t76.5 175q0 104 -69.5 160.5t-212.5 56.5h-84v-454z" />
<glyph unicode="Q" horiz-adv-x="1779" d="M43 766q0 168 65.5 316.5t179 258t269.5 173t334 63.5q176 0 331.5 -63.5t269.5 -172t179.5 -254t65.5 -307.5q0 -158 -80 -306t-219 -251l319 47l-26 -317h-783q-14 -2 -28.5 -2h-28.5q-178 0 -334 64.5t-269.5 174t-179 259t-65.5 317.5zM410 764q0 -98 36.5 -186.5 t101 -153t152.5 -102t191 -37.5q100 0 188 37.5t152.5 102t101.5 153t37 186.5q0 100 -37 187t-101.5 151.5t-152.5 102.5t-188 38q-102 0 -190.5 -38t-153 -102.5t-101 -151.5t-36.5 -187z" />
<glyph unicode="R" horiz-adv-x="1282" d="M96 0v1528h426q127 0 248 -24.5t214 -83t149.5 -159t56.5 -251.5q0 -168 -99.5 -282t-240.5 -171l401 -557h-436l-350 492h-4v-492h-365zM461 778h94q121 0 197.5 59.5t76.5 166.5q0 100 -71.5 150t-206.5 50h-90v-426z" />
<glyph unicode="S" horiz-adv-x="1067" d="M53 1147q0 80 33 154.5t101.5 131t174 91.5t250.5 35q76 0 162 -11.5t152 -36.5l-2 -309q-57 27 -138 44.5t-157 17.5q-100 0 -147.5 -32t-47.5 -85t58.5 -107.5t177.5 -140.5q176 -133 265 -239.5t89 -247.5q0 -102 -45 -184.5t-122 -137.5t-182.5 -85t-225.5 -30 q-45 0 -97.5 4.5t-103.5 11.5t-96.5 17t-75.5 23l2 315q66 -27 167 -51.5t201 -24.5q96 0 149.5 41t53.5 95q0 55 -64.5 114.5t-191.5 149.5q-197 139 -268.5 242.5t-71.5 234.5z" />
<glyph unicode="T" horiz-adv-x="983" d="M18 1200v328h947v-328h-291v-1200h-365v1200h-291z" />
<glyph unicode="U" horiz-adv-x="1458" d="M96 659v869h365v-934q0 -152 82 -232.5t186 -80.5t186 80.5t82 232.5v934h365v-869q0 -338 -164 -523t-469 -185q-303 0 -468 185.5t-165 522.5z" />
<glyph unicode="V" horiz-adv-x="1550" d="M4 1528h393l387 -1086l387 1086h375l-575 -1528h-393z" />
<glyph unicode="W" horiz-adv-x="2064" d="M4 1528h379l246 -991l254 991h315l252 -991l248 991h362l-426 -1528h-340l-260 965l-266 -965h-340z" />
<glyph unicode="X" horiz-adv-x="1454" d="M16 0l463 795l-430 733h404l272 -475l276 475h394l-432 -733l475 -795h-398l-319 553l-303 -553h-402z" />
<glyph unicode="Y" horiz-adv-x="1433" d="M4 1528h397l320 -705l340 705h369l-531 -1043v-485h-364v481z" />
<glyph unicode="Z" horiz-adv-x="1329" d="M27 49l684 1163h-596l133 316h1016l8 -51l-686 -1162h725l-125 -315h-1151z" />
<glyph unicode="[" horiz-adv-x="892" d="M217 -438v1966h594v-207h-260v-1552h276v-207h-610z" />
<glyph unicode="\" horiz-adv-x="1183" d="M23 1597h337l983 -2048h-335z" />
<glyph unicode="]" horiz-adv-x="892" d="M66 -231h276v1552h-260v207h594v-1966h-610v207z" />
<glyph unicode="^" horiz-adv-x="1306" d="M61 756l459 772h260l465 -772h-311l-283 489l-282 -489h-308z" />
<glyph unicode="_" horiz-adv-x="1024" d="M0 -94h1024v-262h-1024v262z" />
<glyph unicode="`" horiz-adv-x="1024" d="M182 1618h396l159 -301h-274z" />
<glyph unicode="a" horiz-adv-x="1153" d="M31 338q0 78 28.5 148.5t82 121.5t131 81t173.5 30q90 0 163 -22.5t124 -61.5v55q0 141 -63.5 191.5t-186.5 50.5q-55 0 -120.5 -9.5t-169.5 -29.5l-7 276q106 20 184.5 28.5t174.5 8.5q262 0 394 -113.5t132 -312.5v-780h-311v109q-55 -63 -140 -106.5t-202 -43.5 q-172 0 -279.5 107.5t-107.5 271.5zM379 346q0 -78 48 -134t130 -56q78 0 128 55t50 135q0 72 -48 125t-130 53t-130 -53t-48 -125z" />
<glyph unicode="b" horiz-adv-x="1466" d="M82 0v1597h338v-575q76 88 188.5 140t243.5 52q121 0 226.5 -49t182 -135t120.5 -201.5t44 -246.5t-44 -246t-120.5 -197t-182 -130t-226.5 -48q-141 0 -257 55.5t-194 149.5v-166h-319zM410 588q0 -68 25.5 -128.5t70.5 -106.5t106.5 -72.5t130.5 -26.5q70 0 130.5 26.5 t104.5 72.5t68.5 107.5t24.5 129.5q0 135 -93 233.5t-235 98.5q-70 0 -131 -27t-106 -72t-70.5 -106t-25.5 -129z" />
<glyph unicode="c" horiz-adv-x="1083" d="M41 588q0 137 53 251.5t147.5 197.5t223.5 129t278 46q66 0 149 -12t128 -41v-303h-10q-47 41 -118 55.5t-140 14.5q-154 0 -255.5 -96.5t-101.5 -241.5q0 -147 101.5 -242.5t255.5 -95.5q70 0 140.5 15.5t117.5 53.5h10v-303q-43 -29 -127 -41t-150 -12 q-150 0 -278.5 46t-223 129t-147.5 198t-53 252z" />
<glyph unicode="d" horiz-adv-x="1466" d="M41 582q0 131 44 246.5t121 201.5t182.5 135t225.5 49q131 0 244 -52t189 -140v575h337v-1597h-317v168q-78 -94 -193.5 -150.5t-259.5 -56.5q-121 0 -226 48t-182 130t-121 197t-44 246zM395 590q0 -68 24.5 -129.5t68.5 -107.5t104.5 -72.5t130.5 -26.5t131 26.5 t106.5 72.5t71 106.5t25.5 128.5t-25.5 129t-71 106t-106.5 72t-131 27q-141 0 -234.5 -98.5t-93.5 -233.5z" />
<glyph unicode="e" horiz-adv-x="1366" d="M41 588q0 139 48 258t134 205t207 134t264 48q135 0 252 -48t202 -134t134 -206t49 -259v-88h-930q20 -137 112.5 -210t246.5 -73q125 0 215 39t158 98l190 -202q-96 -88 -235.5 -147.5t-331.5 -59.5q-166 0 -299 48t-225.5 134t-141.5 205t-49 258zM412 725h557 q-27 109 -98.5 170t-180.5 61q-106 0 -179 -61t-99 -170z" />
<glyph unicode="f" horiz-adv-x="659" d="M27 891v285h135v55q0 139 44 222t113.5 127t157.5 57.5t174 13.5v-291q-63 0 -107 -27.5t-44 -128.5v-28h133v-285h-133v-891h-338v891h-135z" />
<glyph unicode="g" horiz-adv-x="1400" d="M39 633q0 133 46 242.5t123 186.5t178 119t210 42q111 0 215 -51.5t182 -135.5v140h326v-1006q0 -340 -170 -488.5t-510 -148.5q-92 0 -188.5 9t-200.5 30v291q115 -25 204 -34t175 -9q156 0 254 70.5t98 267.5v61q-76 -76 -177.5 -122t-207.5 -46q-109 0 -210 42 t-178 118t-123 184.5t-46 237.5zM393 631q0 -119 88 -205t207 -86q121 0 207 86t86 205q0 123 -86 210t-207 87q-119 0 -207 -87t-88 -210z" />
<glyph unicode="h" d="M82 0v1597h321v-573q51 63 150.5 121.5t234.5 58.5q90 0 168 -30.5t134.5 -86t88 -136.5t31.5 -181v-770h-340v666q0 131 -64.5 185t-156.5 54q-39 0 -80 -14t-74.5 -43t-54 -70t-20.5 -92v-686h-338z" />
<glyph unicode="i" horiz-adv-x="509" d="M84 1325v272h344v-272h-344zM86 0v1176h338v-1176h-338z" />
<glyph unicode="j" horiz-adv-x="509" d="M-127 -172h31q90 0 136 38t46 134v1176h338v-1178q0 -272 -121 -371.5t-401 -99.5h-29v301zM84 1325v272h344v-272h-344z" />
<glyph unicode="k" horiz-adv-x="1257" d="M82 0v1597h338v-819l385 398h420l-445 -463l473 -713h-405l-316 485l-112 -125v-360h-338z" />
<glyph unicode="l" horiz-adv-x="509" d="M86 0v1597h338v-1597h-338z" />
<glyph unicode="m" horiz-adv-x="1933" d="M82 0v1176h326v-172q20 33 52 69.5t75 65t98 48t121 19.5q117 0 208 -59.5t136 -163.5q18 35 49 74t75 72.5t104 55t136 21.5q174 0 283.5 -116.5t109.5 -319.5v-770h-339v668q0 131 -50.5 185t-134.5 54q-74 0 -133 -55t-59 -176v-676h-340v668q0 131 -52.5 185 t-134.5 54t-136 -58.5t-54 -160.5v-688h-340z" />
<glyph unicode="n" d="M82 0v1176h321v-144q53 63 151.5 118.5t233.5 55.5q90 0 168 -30.5t134.5 -86t88 -137.5t31.5 -182v-770h-340v668q0 129 -64.5 184t-156.5 55q-39 0 -80 -15t-74.5 -43t-54 -69t-20.5 -92v-688h-338z" />
<glyph unicode="o" horiz-adv-x="1464" d="M41 588q0 135 52 252.5t144.5 205t219.5 137.5t274 50t275.5 -50t220.5 -137.5t144 -205t52 -252.5t-52 -253t-144 -205t-220 -137t-276 -50q-147 0 -274 50t-219.5 137t-144.5 205t-52 253zM395 588q0 -147 96.5 -251t239.5 -104q145 0 241.5 103.5t96.5 251.5 q0 147 -96.5 250.5t-241.5 103.5q-143 0 -239.5 -103.5t-96.5 -250.5z" />
<glyph unicode="p" horiz-adv-x="1466" d="M82 -451v1627h319v-166q78 94 194 149t257 55q121 0 226.5 -48t182 -130t120.5 -196.5t44 -245.5t-44 -247t-120.5 -202t-182 -135t-226.5 -49q-131 0 -243.5 52.5t-188.5 140.5v-605h-338zM410 588q0 -68 25.5 -129.5t70.5 -106.5t106.5 -71.5t130.5 -26.5 q141 0 234.5 98.5t93.5 233.5q0 68 -24.5 129t-68.5 107t-104.5 73t-130.5 27t-131 -27t-106 -73t-70.5 -106t-25.5 -128z" />
<glyph unicode="q" horiz-adv-x="1466" d="M41 594q0 131 44 245.5t121 196.5t182.5 130t225.5 48q143 0 259 -56t194 -150v168h317v-1627h-337v605q-76 -88 -189 -140.5t-244 -52.5q-121 0 -226 49t-182 135t-121 202t-44 247zM395 586q0 -135 93.5 -233.5t234.5 -98.5q70 0 131 26.5t106.5 71.5t71 106.5 t25.5 129.5t-25.5 128t-71 106t-106.5 73t-131 27t-130.5 -27t-104.5 -73t-68.5 -107.5t-24.5 -128.5z" />
<glyph unicode="r" horiz-adv-x="806" d="M82 0v1176h321v-254q14 33 45 77.5t75 85.5t99.5 69t120.5 28h39v-371q-10 4 -30.5 7t-34.5 3q-68 0 -123 -20.5t-93 -52t-59.5 -69.5t-21.5 -71v-608h-338z" />
<glyph unicode="s" horiz-adv-x="919" d="M45 887q0 61 24.5 121.5t79 106.5t139.5 74t204 28q80 0 149.5 -13.5t124.5 -34.5v-284q-72 33 -138.5 47t-105.5 14q-57 0 -89 -20.5t-32 -53.5q0 -27 34 -57.5t106 -77.5q207 -137 276.5 -232t69.5 -194q0 -150 -119 -249t-336 -101q-84 0 -181 21.5t-171 52.5v284 q92 -45 173 -65.5t132 -20.5q76 0 107.5 26t31.5 58q0 27 -35.5 65t-152.5 114q-92 61 -149.5 110t-88 94t-42 90.5t-11.5 96.5z" />
<glyph unicode="t" horiz-adv-x="665" d="M27 891v285h137v284l338 62v-346h137v-285h-137v-891h-338v891h-137z" />
<glyph unicode="u" d="M80 406v770h338v-668q0 -129 64.5 -184.5t156.5 -55.5q41 0 82 15.5t73.5 43t53 68.5t20.5 92v689h338v-1176h-321v143q-53 -63 -151.5 -118.5t-233.5 -55.5q-180 0 -300 117t-120 320z" />
<glyph unicode="v" horiz-adv-x="1368" d="M-2 1176h379l313 -830l326 830h354l-479 -1176h-410z" />
<glyph unicode="w" horiz-adv-x="1880" d="M-2 1176h354l213 -734l230 734h307l229 -738l213 738h338l-393 -1176h-313l-230 705l-225 -705h-322z" />
<glyph unicode="x" horiz-adv-x="1337" d="M20 0l435 610l-387 566h376l242 -385l262 385h357l-416 -572l391 -604h-358l-267 401l-280 -401h-355z" />
<glyph unicode="y" horiz-adv-x="1343" d="M-2 1176h383l324 -814l288 814h353l-611 -1627h-348l152 420z" />
<glyph unicode="z" horiz-adv-x="1175" d="M4 29l590 862h-485l116 285h891l14 -29l-581 -862h581l-116 -285h-994z" />
<glyph unicode="{" horiz-adv-x="927" d="M156 449v188q4 2 10 3t8 3q51 14 83 62.5t32 140.5v399q0 166 85 224.5t224 58.5h201v-207h-64q-57 0 -84.5 -30.5t-27.5 -131.5v-305q0 -98 -44 -172t-139 -117v-43q94 -43 138.5 -111.5t44.5 -168.5v-332q0 -102 27.5 -121.5t84.5 -19.5h64v-207h-201q-139 0 -224 58 t-85 224v394q0 94 -32 142t-83 62q-2 2 -9 3t-9 4z" />
<glyph unicode="|" horiz-adv-x="462" d="M125 -328v1856h211v-1856h-211z" />
<glyph unicode="}" horiz-adv-x="927" d="M129 -252h64q57 0 84.5 19.5t27.5 121.5v353q0 100 43 169.5t139 110.5v43q-96 43 -139 117t-43 172v326q0 100 -27.5 130.5t-84.5 30.5h-64v187h201q137 0 222 -58.5t85 -224.5v-399q0 -92 31.5 -140.5t83.5 -62.5q4 -2 11 -3t9 -3v-188q-2 -2 -10 -3.5t-10 -3.5 q-51 -14 -83 -62t-32 -142v-394q0 -166 -85 -224t-222 -58h-201v186z" />
<glyph unicode="~" horiz-adv-x="1361" d="M90 455q0 231 92 336.5t242 105.5q57 0 120.5 -29.5t126 -66.5t122 -66.5t104.5 -29.5q41 0 67.5 27.5t26.5 125.5l281 -18q0 -197 -75 -313.5t-234 -116.5q-59 0 -127 29.5t-134.5 64.5t-128 64.5t-108.5 29.5q-35 0 -64.5 -31t-29.5 -131z" />
<glyph unicode="&#xa1;" horiz-adv-x="686" d="M135 0l64 1075h288l64 -1075h-416zM154 1212v316h376v-316h-376z" />
<glyph unicode="&#xa2;" horiz-adv-x="1046" d="M41 588q0 123 40 226.5t111.5 183t172 133t217.5 73.5v219h211v-206q53 -2 109 -13.5t106 -34.5v-307h-11q-47 37 -111.5 54.5t-127.5 17.5q-76 0 -142.5 -26.5t-115.5 -74t-78 -111t-29 -134.5q0 -72 29 -135.5t78 -110.5t115.5 -73.5t142.5 -26.5q63 0 123.5 15 t115.5 50h11v-305q-45 -20 -102.5 -30.5t-112.5 -12.5v-199h-211v211q-117 20 -217.5 73.5t-172 133.5t-111.5 183.5t-40 226.5z" />
<glyph unicode="&#xa3;" horiz-adv-x="1257" d="M80 0v266h53q78 0 115 48t37 151v217h-156v203h156v248q0 100 45 180t119.5 134t173 83t202.5 29q70 0 138.5 -7.5t134.5 -35.5v-291q-53 29 -107.5 41t-109.5 12q-94 0 -171 -48t-77 -130v-215h344v-203h-344v-217q0 -68 -17.5 -118t-46.5 -81l602 -2v-264h-1091z" />
<glyph unicode="&#xa4;" horiz-adv-x="1171" d="M49 455l174 170q-23 43 -35 91t-12 97t12.5 96t32.5 90l-172 172l164 168l172 -170q43 27 94 40.5t107 13.5q55 0 106 -13.5t94 -40.5l172 170l164 -165l-174 -175q20 -41 32.5 -89t12.5 -97t-12 -95t-33 -89l174 -172l-164 -170l-172 170q-45 -25 -95 -39.5t-105 -14.5 t-105.5 14.5t-95.5 39.5l-172 -170zM383 813q0 -82 57.5 -144.5t145.5 -62.5t145 62.5t57 144.5t-57 144.5t-145 62.5t-145.5 -62.5t-57.5 -144.5z" />
<glyph unicode="&#xa5;" horiz-adv-x="1437" d="M33 1528h393l297 -639l313 639h369l-352 -680h268v-203h-375l-47 -92v-49h422v-203h-422v-301h-364v301h-402v203h402v49l-48 92h-354v203h250z" />
<glyph unicode="&#xa6;" horiz-adv-x="462" d="M125 -328v838h211v-838h-211zM125 690v838h211v-838h-211z" />
<glyph unicode="&#xa7;" horiz-adv-x="1187" d="M59 557q0 100 58.5 197.5t169.5 150.5q-53 57 -73.5 118.5t-20.5 125.5q0 78 30.5 154.5t88 137t143.5 98.5t196 38q68 0 136.5 -13.5t138.5 -52.5l-2 -278q-63 35 -131 50t-144 15q-61 0 -111.5 -31.5t-50.5 -82.5t67 -93t187 -106q117 -57 194 -115.5t121 -117 t61.5 -119t17.5 -121.5q0 -129 -56.5 -214t-142.5 -130q33 -51 47 -104.5t14 -104.5q0 -113 -45 -192.5t-115.5 -130t-159.5 -75t-177 -24.5q-84 0 -174 20.5t-160 59.5l4 303q82 -47 163 -74.5t167 -27.5q82 0 139 32.5t57 92.5q0 25 -8 47t-35.5 47.5t-80 56.5t-140.5 70 q-195 76 -284 170t-89 223zM346 637q0 -25 10.5 -50.5t39 -54t82.5 -59t140 -67.5q43 -18 79 -37t69 -39q33 20 54.5 54t21.5 77q0 45 -45 109.5t-201 138.5q-33 14 -63.5 28.5t-57.5 28.5q-61 -10 -95 -44t-34 -85z" />
<glyph unicode="&#xa8;" horiz-adv-x="1024" d="M133 1382v248h285v-248h-285zM606 1382v248h285v-248h-285z" />
<glyph unicode="&#xa9;" horiz-adv-x="1771" d="M88 764q0 162 60.5 305t167 249.5t254 168t317.5 61.5t316.5 -61.5t253 -168t166.5 -249.5t60 -305t-60 -305.5t-166.5 -250t-253 -167.5t-316.5 -61t-317.5 61t-254 167.5t-167 250t-60.5 305.5zM195 764q0 -141 55 -267t148.5 -219.5t220 -147.5t268.5 -54 q141 0 266 54t219 147.5t148.5 219.5t54.5 267t-54.5 267t-148.5 219t-219 147.5t-266 54.5t-268 -54.5t-220.5 -147.5t-148.5 -219t-55 -267zM412 770q0 100 37.5 190.5t105.5 156t161 104.5t202 39q84 0 167.5 -31t153.5 -92l-127 -199q-43 29 -87 45t-93 16 q-100 0 -169 -66.5t-69 -162.5t68.5 -163.5t169.5 -67.5q49 0 93 16t87 45l127 -199q-72 -61 -155 -91.5t-166 -30.5q-109 0 -202 38.5t-161 105t-105.5 157t-37.5 190.5z" />
<glyph unicode="&#xaa;" horiz-adv-x="872" d="M14 944q0 111 77 189.5t220 78.5q61 0 110.5 -13t84.5 -34v15q0 82 -40 110.5t-128 26.5q-39 0 -88 -6t-123 -21l-2 252q76 14 137.5 20.5t140.5 6.5q205 0 311.5 -83t106.5 -231v-548h-289v73q-39 -41 -99 -71.5t-146 -30.5q-123 0 -198 74.5t-75 191.5zM317 950 q0 -45 26 -76.5t71 -31.5q43 0 68.5 31.5t25.5 76.5q0 39 -24.5 69t-69.5 30t-71 -30t-26 -69z" />
<glyph unicode="&#xab;" d="M84 584v6l379 586h285l-381 -584l378 -592h-282zM537 584v6l379 586h285l-381 -584l378 -592h-282z" />
<glyph unicode="&#xac;" horiz-adv-x="1339" d="M61 623v292h1196v-675h-339v383h-857z" />
<glyph unicode="&#xad;" horiz-adv-x="827" d="M82 498v305h663v-305h-663z" />
<glyph unicode="&#xae;" horiz-adv-x="1079" d="M61 1079q0 96 37 182.5t100.5 150t152 100t190.5 36.5t189 -36.5t150.5 -100t100.5 -149.5t37 -183q0 -98 -37 -184t-100.5 -149.5t-150.5 -100.5t-189 -37t-190.5 37t-152 100.5t-100.5 149.5t-37 184zM125 1079q0 -84 32.5 -159.5t89 -132t133.5 -89t161 -32.5 t159.5 32.5t131 89t88 132t32.5 159.5t-32.5 160t-88 131t-131 88t-159.5 33t-161 -33t-133.5 -88t-89 -131t-32.5 -160zM356 819v533h179q37 0 76.5 -7.5t73.5 -28t56.5 -58t22.5 -97.5q0 -49 -21.5 -85t-54.5 -58l113 -187l-10 -12h-173l-86 154h-6v-154h-170zM522 1092 h23q29 0 43 14t14 43q0 35 -17 47t-42 12h-21v-116z" />
<glyph unicode="&#xaf;" horiz-adv-x="1024" d="M190 1370v240h644v-240h-644z" />
<glyph unicode="&#xb0;" horiz-adv-x="794" d="M49 1235q0 68 26.5 128t74 105t110.5 72t137 27t137.5 -27t110.5 -72t73.5 -105t26.5 -128t-26.5 -129.5t-73.5 -106.5t-110.5 -71.5t-137.5 -26.5t-137 26.5t-110.5 71.5t-74 106.5t-26.5 129.5zM225 1233q0 -70 49.5 -121t122.5 -51q74 0 123 51t49 121q0 72 -49 123 t-123 51t-123 -51t-49 -123z" />
<glyph unicode="&#xb1;" horiz-adv-x="1265" d="M76 -2v242h1114v-242h-1114zM82 635v272h399v377h307v-377h396v-272h-396v-324h-307v324h-399z" />
<glyph unicode="&#xb2;" horiz-adv-x="876" d="M51 610q27 33 77 97.5t104.5 132t103.5 128t70 88.5q39 49 55 83t16 75q0 45 -34.5 80t-102.5 35q-45 0 -95 -17.5t-104 -56.5v256q57 25 119 36t117 11q174 -2 275.5 -90t101.5 -221q-2 -102 -50.5 -168t-101.5 -135q-23 -29 -58.5 -71t-74.5 -85h350l-88 -217h-661z " />
<glyph unicode="&#xb3;" horiz-adv-x="798" d="M68 587v213q41 -27 97 -37t89 -10q100 -2 158.5 28t58.5 81q0 49 -54 78.5t-142 29.5h-60l10 203h50q66 0 108.5 25.5t42.5 68.5q0 39 -39 58.5t-102 19.5q-39 0 -86 -7t-86 -26l12 222q39 10 87 17t128 7q152 2 251 -70.5t99 -181.5q-2 -63 -35.5 -120.5t-91.5 -94.5 q76 -35 123 -98.5t47 -142.5q0 -135 -109.5 -223.5t-285.5 -86.5q-63 0 -142 10.5t-128 36.5z" />
<glyph unicode="&#xb4;" horiz-adv-x="1024" d="M305 1317l158 301h389l-279 -301h-268z" />
<glyph unicode="&#xb6;" horiz-adv-x="1335" d="M61 1036q0 94 39 183.5t111 158t174 109.5t227 41h613v-1952h-209v1729h-160v-1729h-211v981h-51q-119 0 -217 37t-168 100.5t-109 151.5t-39 190z" />
<glyph unicode="&#xb7;" horiz-adv-x="577" d="M98 543v331h381v-331h-381z" />
<glyph unicode="&#xb8;" horiz-adv-x="1024" d="M281 -264h2q41 -12 84 -18.5t63 -6.5q51 0 80 16.5t29 45.5t-39 47t-103 18h-37l-6 17l60 172l129 -4l-29 -78q104 -10 164.5 -57.5t60.5 -125.5q0 -80 -77.5 -133t-206.5 -53q-35 0 -83 6t-91 21v133z" />
<glyph unicode="&#xb9;" horiz-adv-x="634" d="M88 999v336l227 192h205v-956h-264v586z" />
<glyph unicode="&#xba;" horiz-adv-x="1064" d="M25 1120q0 98 38.5 182t106.5 144.5t160.5 95.5t201.5 35t202 -35t161 -95.5t106.5 -144t38.5 -182.5q0 -100 -38.5 -184t-106.5 -145.5t-161 -96.5t-202 -35t-201.5 35t-160.5 96.5t-106.5 145.5t-38.5 184zM346 1120q0 -88 53.5 -143t132.5 -55q80 0 134.5 55t54.5 143 q0 84 -54.5 139.5t-134.5 55.5t-133 -55.5t-53 -139.5z" />
<glyph unicode="&#xbb;" d="M90 0l379 592l-379 584h283l379 -586v-6l-379 -584h-283zM543 0l379 592l-379 584h283l379 -586v-6l-379 -584h-283z" />
<glyph unicode="&#xbc;" horiz-adv-x="1841" d="M49 999v336l227 192h205v-956h-264v586zM278 0l934 1528h299l-938 -1528h-295zM983 201l500 755h231v-596h121l-57 -213h-64v-147h-264v147h-442zM1286 360h164v246z" />
<glyph unicode="&#xbd;" horiz-adv-x="1988" d="M49 999v336l227 192h205v-956h-264v586zM278 0l934 1528h299l-938 -1528h-295zM1200 39q27 33 77 97.5t104.5 132t103.5 128t70 88.5q39 49 55 83t16 75q0 45 -34.5 80t-102.5 35q-45 0 -95 -17.5t-104 -56.5v256q57 25 119 36t117 11q174 -2 275.5 -90t101.5 -221 q-2 -102 -50.5 -168t-101.5 -135q-23 -29 -58.5 -71t-74.5 -85h350l-88 -217h-661z" />
<glyph unicode="&#xbe;" horiz-adv-x="1978" d="M29 587v213q41 -27 97 -37t89 -10q100 -2 158.5 28t58.5 81q0 49 -54 78.5t-142 29.5h-60l10 203h50q66 0 108.5 25.5t42.5 68.5q0 39 -39 58.5t-102 19.5q-39 0 -86 -7t-86 -26l12 222q39 10 87 17t128 7q152 2 251 -70.5t99 -181.5q-2 -63 -35.5 -120.5t-91.5 -94.5 q76 -35 123 -98.5t47 -142.5q0 -135 -109.5 -223.5t-285.5 -86.5q-63 0 -142 10.5t-128 36.5zM417 0l934 1528h299l-938 -1528h-295zM1122 201l500 755h231v-596h121l-57 -213h-64v-147h-264v147h-442zM1425 360h164v246z" />
<glyph unicode="&#xbf;" horiz-adv-x="1148" d="M102 434q0 109 31 190t83 136t123 87t150 44v223h308v-375h-70q-119 0 -207 -63.5t-88 -186.5q0 -100 75 -169.5t218 -69.5q76 0 153.5 23.5t159.5 80.5l9 -280q-94 -51 -200 -78t-206 -27q-246 0 -392.5 129t-146.5 336zM481 1245v283h324v-283h-324z" />
<glyph unicode="&#xc0;" horiz-adv-x="1552" d="M4 0l592 1528h360l592 -1528h-391l-82 227h-610l-82 -227h-379zM346 1954h396l159 -301h-274zM569 514h404l-201 559z" />
<glyph unicode="&#xc1;" horiz-adv-x="1552" d="M4 0l592 1528h360l592 -1528h-391l-82 227h-610l-82 -227h-379zM569 514h404l-201 559zM639 1653l158 301h389l-279 -301h-268z" />
<glyph unicode="&#xc2;" horiz-adv-x="1552" d="M4 0l592 1528h360l592 -1528h-391l-82 227h-610l-82 -227h-379zM348 1653l256 301h334l256 -301h-299l-125 153l-123 -153h-299zM569 514h404l-201 559z" />
<glyph unicode="&#xc3;" horiz-adv-x="1552" d="M4 0l592 1528h360l592 -1528h-391l-82 227h-610l-82 -227h-379zM299 1663q-12 190 68.5 267t197.5 77q51 0 101.5 -15.5t95.5 -35t84 -34.5t67 -15q33 0 56.5 17.5t23.5 72.5l250 -8q8 -158 -58.5 -243t-201.5 -85q-51 0 -103.5 14.5t-98.5 32.5t-85 32.5t-67 14.5 q-33 0 -57.5 -19.5t-22.5 -80.5zM569 514h404l-201 559z" />
<glyph unicode="&#xc4;" horiz-adv-x="1552" d="M4 0l592 1528h360l592 -1528h-391l-82 227h-610l-82 -227h-379zM393 1652v248h285v-248h-285zM569 514h404l-201 559zM866 1652v248h285v-248h-285z" />
<glyph unicode="&#xc5;" horiz-adv-x="1552" d="M4 0l592 1528h360l592 -1528h-391l-82 227h-610l-82 -227h-379zM491 1653q0 104 82 186t199 82t199 -81t82 -187t-82 -187.5t-199 -81.5t-199 82t-82 187zM569 514h404l-201 559zM649 1653q0 -51 36 -87t87 -36t87 35.5t36 87.5q0 51 -36 86.5t-87 35.5t-87 -35.5 t-36 -86.5z" />
<glyph unicode="&#xc6;" horiz-adv-x="1957" d="M4 0l574 1528h1011v-322h-530l104 -280h570v-293h-465l114 -311h572v-322h-834l-73 227h-588l-76 -227h-379zM553 514h399l-198 610z" />
<glyph unicode="&#xc7;" horiz-adv-x="1277" d="M43 766q0 166 62.5 314.5t174 257t265 172t334.5 63.5q88 0 170.5 -17.5t156.5 -52.5v-348q-63 41 -142 61.5t-163 20.5q-102 0 -192.5 -38t-157 -101.5t-104 -149.5t-37.5 -180q0 -96 37.5 -184t104 -152.5t157 -102.5t192.5 -38q84 0 163 20.5t142 61.5v-350 q-74 -35 -156.5 -51.5t-170.5 -16.5q-180 0 -334 63.5t-265.5 173t-174 258t-62.5 316.5zM580 -309h2q41 -12 84 -18.5t63 -6.5q51 0 80 16.5t29 45.5t-39 47t-103 18h-37l-6 17l60 172l129 -4l-29 -78q104 -10 164.5 -57.5t60.5 -125.5q0 -80 -77.5 -133t-206.5 -53 q-35 0 -83 6t-91 21v133z" />
<glyph unicode="&#xc8;" horiz-adv-x="1077" d="M96 0v1528h885v-322h-520v-280h467v-293h-467v-311h536v-322h-901zM129 1954h396l159 -301h-274z" />
<glyph unicode="&#xc9;" horiz-adv-x="1077" d="M96 0v1528h885v-322h-520v-280h467v-293h-467v-311h536v-322h-901zM422 1653l158 301h389l-279 -301h-268z" />
<glyph unicode="&#xca;" horiz-adv-x="1077" d="M96 0v1528h885v-322h-520v-280h467v-293h-467v-311h536v-322h-901zM131 1653l256 301h334l256 -301h-299l-125 153l-123 -153h-299z" />
<glyph unicode="&#xcb;" horiz-adv-x="1077" d="M96 0v1528h885v-322h-520v-280h467v-293h-467v-311h536v-322h-901zM176 1652v248h285v-248h-285zM649 1652v248h285v-248h-285z" />
<glyph unicode="&#xcc;" horiz-adv-x="557" d="M-148 1954h396l159 -301h-274zM96 0v1528h365v-1528h-365z" />
<glyph unicode="&#xcd;" horiz-adv-x="557" d="M96 0v1528h365v-1528h-365zM145 1653l158 301h389l-279 -301h-268z" />
<glyph unicode="&#xce;" horiz-adv-x="557" d="M-145 1653l256 301h334l256 -301h-299l-125 153l-123 -153h-299zM96 0v1528h365v-1528h-365z" />
<glyph unicode="&#xcf;" horiz-adv-x="557" d="M-100 1652v248h285v-248h-285zM96 0v1528h365v-1528h-365zM373 1652v248h285v-248h-285z" />
<glyph unicode="&#xd0;" horiz-adv-x="1435" d="M12 639v270h97v619h458q158 0 305.5 -44t260 -136.5t180 -237.5t67.5 -344q0 -203 -66.5 -348.5t-177 -237.5t-257 -136t-306.5 -44h-464v639h-97zM473 330h115q84 0 161.5 26.5t136 81t93.5 137t35 191.5t-35 189.5t-93.5 134t-136 81t-161.5 27.5h-115v-289h217v-270 h-217v-309z" />
<glyph unicode="&#xd1;" horiz-adv-x="1570" d="M96 0v1528h350l664 -914v914h365v-1528h-349l-665 911v-911h-365zM281 1663q-12 190 68.5 267t197.5 77q51 0 101.5 -15.5t95.5 -35t84 -34.5t67 -15q33 0 56.5 17.5t23.5 72.5l250 -8q8 -158 -58.5 -243t-201.5 -85q-51 0 -103.5 14.5t-98.5 32.5t-85 32.5t-67 14.5 q-33 0 -57.5 -19.5t-22.5 -80.5z" />
<glyph unicode="&#xd2;" horiz-adv-x="1779" d="M43 766q0 168 65.5 316.5t179 258t269.5 173t334 63.5q176 0 331.5 -63.5t269.5 -173t179.5 -258t65.5 -316.5t-65.5 -317.5t-179.5 -259t-269.5 -174t-331.5 -64.5q-178 0 -334 64.5t-269.5 174t-179 259t-65.5 317.5zM410 764q0 -98 36.5 -186.5t101 -153t152.5 -102 t191 -37.5q100 0 188 37.5t152.5 102t101.5 153t37 186.5q0 100 -37 187t-101.5 151.5t-152.5 102.5t-188 38q-102 0 -190.5 -38t-153 -102.5t-101 -151.5t-36.5 -187zM465 1954h396l159 -301h-274z" />
<glyph unicode="&#xd3;" horiz-adv-x="1779" d="M43 766q0 168 65.5 316.5t179 258t269.5 173t334 63.5q176 0 331.5 -63.5t269.5 -173t179.5 -258t65.5 -316.5t-65.5 -317.5t-179.5 -259t-269.5 -174t-331.5 -64.5q-178 0 -334 64.5t-269.5 174t-179 259t-65.5 317.5zM410 764q0 -98 36.5 -186.5t101 -153t152.5 -102 t191 -37.5q100 0 188 37.5t152.5 102t101.5 153t37 186.5q0 100 -37 187t-101.5 151.5t-152.5 102.5t-188 38q-102 0 -190.5 -38t-153 -102.5t-101 -151.5t-36.5 -187zM758 1653l158 301h389l-279 -301h-268z" />
<glyph unicode="&#xd4;" horiz-adv-x="1779" d="M43 766q0 168 65.5 316.5t179 258t269.5 173t334 63.5q176 0 331.5 -63.5t269.5 -173t179.5 -258t65.5 -316.5t-65.5 -317.5t-179.5 -259t-269.5 -174t-331.5 -64.5q-178 0 -334 64.5t-269.5 174t-179 259t-65.5 317.5zM410 764q0 -98 36.5 -186.5t101 -153t152.5 -102 t191 -37.5q100 0 188 37.5t152.5 102t101.5 153t37 186.5q0 100 -37 187t-101.5 151.5t-152.5 102.5t-188 38q-102 0 -190.5 -38t-153 -102.5t-101 -151.5t-36.5 -187zM467 1653l256 301h334l256 -301h-299l-125 153l-123 -153h-299z" />
<glyph unicode="&#xd5;" horiz-adv-x="1779" d="M43 766q0 168 65.5 316.5t179 258t269.5 173t334 63.5q176 0 331.5 -63.5t269.5 -173t179.5 -258t65.5 -316.5t-65.5 -317.5t-179.5 -259t-269.5 -174t-331.5 -64.5q-178 0 -334 64.5t-269.5 174t-179 259t-65.5 317.5zM410 764q0 -98 36.5 -186.5t101 -153t152.5 -102 t191 -37.5q100 0 188 37.5t152.5 102t101.5 153t37 186.5q0 100 -37 187t-101.5 151.5t-152.5 102.5t-188 38q-102 0 -190.5 -38t-153 -102.5t-101 -151.5t-36.5 -187zM418 1663q-12 190 68.5 267t197.5 77q51 0 101.5 -15.5t95.5 -35t84 -34.5t67 -15q33 0 56.5 17.5 t23.5 72.5l250 -8q8 -158 -58.5 -243t-201.5 -85q-51 0 -103.5 14.5t-98.5 32.5t-85 32.5t-67 14.5q-33 0 -57.5 -19.5t-22.5 -80.5z" />
<glyph unicode="&#xd6;" horiz-adv-x="1779" d="M43 766q0 168 65.5 316.5t179 258t269.5 173t334 63.5q176 0 331.5 -63.5t269.5 -173t179.5 -258t65.5 -316.5t-65.5 -317.5t-179.5 -259t-269.5 -174t-331.5 -64.5q-178 0 -334 64.5t-269.5 174t-179 259t-65.5 317.5zM410 764q0 -98 36.5 -186.5t101 -153t152.5 -102 t191 -37.5q100 0 188 37.5t152.5 102t101.5 153t37 186.5q0 100 -37 187t-101.5 151.5t-152.5 102.5t-188 38q-102 0 -190.5 -38t-153 -102.5t-101 -151.5t-36.5 -187zM512 1652v248h285v-248h-285zM985 1652v248h285v-248h-285z" />
<glyph unicode="&#xd7;" horiz-adv-x="1163" d="M59 375l332 332l-328 325l191 189l326 -326l309 309l186 -182l-311 -311l342 -340l-191 -191l-342 342l-331 -332z" />
<glyph unicode="&#xd8;" horiz-adv-x="1808" d="M43 766q0 168 65.5 316.5t179 258t269.5 173t334 63.5q96 0 187 -19.5t173 -56.5l86 125h291l-174 -254q129 -111 206 -268.5t77 -337.5q0 -168 -65.5 -317.5t-179.5 -259t-269.5 -174t-331.5 -64.5q-98 0 -189.5 19.5t-173.5 56.5l-86 -125h-292l176 254 q-129 111 -206 269.5t-77 340.5zM410 764q0 -90 30.5 -171t85.5 -144l529 765q-39 14 -80 21.5t-84 7.5q-102 0 -190.5 -38t-153 -102.5t-101 -151.5t-36.5 -187zM725 313q39 -14 80 -21t86 -7q100 0 188 37.5t152.5 102t101.5 153t37 186.5q0 90 -30.5 172t-86.5 145z" />
<glyph unicode="&#xd9;" horiz-adv-x="1458" d="M96 659v869h365v-934q0 -152 82 -232.5t186 -80.5t186 80.5t82 232.5v934h365v-869q0 -338 -164 -523t-469 -185q-303 0 -468 185.5t-165 522.5zM301 1954h396l159 -301h-274z" />
<glyph unicode="&#xda;" horiz-adv-x="1458" d="M96 659v869h365v-934q0 -152 82 -232.5t186 -80.5t186 80.5t82 232.5v934h365v-869q0 -338 -164 -523t-469 -185q-303 0 -468 185.5t-165 522.5zM594 1653l158 301h389l-279 -301h-268z" />
<glyph unicode="&#xdb;" horiz-adv-x="1458" d="M96 659v869h365v-934q0 -152 82 -232.5t186 -80.5t186 80.5t82 232.5v934h365v-869q0 -338 -164 -523t-469 -185q-303 0 -468 185.5t-165 522.5zM305 1653l256 301h334l256 -301h-299l-125 153l-123 -153h-299z" />
<glyph unicode="&#xdc;" horiz-adv-x="1458" d="M96 659v869h365v-934q0 -152 82 -232.5t186 -80.5t186 80.5t82 232.5v934h365v-869q0 -338 -164 -523t-469 -185q-303 0 -468 185.5t-165 522.5zM350 1652v248h285v-248h-285zM823 1652v248h285v-248h-285z" />
<glyph unicode="&#xdd;" horiz-adv-x="1433" d="M4 1528h397l320 -705l340 705h369l-531 -1043v-485h-364v481zM586 1653l158 301h389l-279 -301h-268z" />
<glyph unicode="&#xde;" horiz-adv-x="1204" d="M96 0v1528h365v-201h98q117 0 229.5 -20.5t198.5 -76.5t138.5 -159.5t52.5 -267.5q0 -141 -57.5 -238.5t-147.5 -158t-201.5 -87t-220.5 -26.5h-90v-293h-365zM461 610h127q102 0 165.5 50.5t63.5 142.5q0 100 -58 150.5t-171 50.5h-127v-394z" />
<glyph unicode="&#xdf;" horiz-adv-x="1318" d="M82 0v1231q0 139 44 222t113.5 127t156.5 57.5t175 13.5v-291q-63 0 -107 -27.5t-44 -128.5v-188l96 160h737l9 -13l-220 -432q106 -59 162 -152.5t56 -203.5q0 -117 -46.5 -216.5t-128 -182t-196.5 -152.5t-250 -127v338q147 78 208.5 166t61.5 174q0 98 -71.5 159.5 t-182.5 83.5l144 273h-379v-891h-338z" />
<glyph unicode="&#xe0;" horiz-adv-x="1153" d="M31 338q0 78 28.5 148.5t82 121.5t131 81t173.5 30q90 0 163 -22.5t124 -61.5v55q0 141 -63.5 191.5t-186.5 50.5q-55 0 -120.5 -9.5t-169.5 -29.5l-7 276q106 20 184.5 28.5t174.5 8.5q262 0 394 -113.5t132 -312.5v-780h-311v109q-55 -63 -140 -106.5t-202 -43.5 q-172 0 -279.5 107.5t-107.5 271.5zM143 1632h396l159 -301h-274zM379 346q0 -78 48 -134t130 -56q78 0 128 55t50 135q0 72 -48 125t-130 53t-130 -53t-48 -125z" />
<glyph unicode="&#xe1;" horiz-adv-x="1153" d="M31 338q0 78 28.5 148.5t82 121.5t131 81t173.5 30q90 0 163 -22.5t124 -61.5v55q0 141 -63.5 191.5t-186.5 50.5q-55 0 -120.5 -9.5t-169.5 -29.5l-7 276q106 20 184.5 28.5t174.5 8.5q262 0 394 -113.5t132 -312.5v-780h-311v109q-55 -63 -140 -106.5t-202 -43.5 q-172 0 -279.5 107.5t-107.5 271.5zM379 346q0 -78 48 -134t130 -56q78 0 128 55t50 135q0 72 -48 125t-130 53t-130 -53t-48 -125zM436 1331l158 301h389l-279 -301h-268z" />
<glyph unicode="&#xe2;" horiz-adv-x="1153" d="M31 338q0 78 28.5 148.5t82 121.5t131 81t173.5 30q90 0 163 -22.5t124 -61.5v55q0 141 -63.5 191.5t-186.5 50.5q-55 0 -120.5 -9.5t-169.5 -29.5l-7 276q106 20 184.5 28.5t174.5 8.5q262 0 394 -113.5t132 -312.5v-780h-311v109q-55 -63 -140 -106.5t-202 -43.5 q-172 0 -279.5 107.5t-107.5 271.5zM145 1331l256 301h334l256 -301h-299l-125 153l-123 -153h-299zM379 346q0 -78 48 -134t130 -56q78 0 128 55t50 135q0 72 -48 125t-130 53t-130 -53t-48 -125z" />
<glyph unicode="&#xe3;" horiz-adv-x="1153" d="M31 338q0 78 28.5 148.5t82 121.5t131 81t173.5 30q90 0 163 -22.5t124 -61.5v55q0 141 -63.5 191.5t-186.5 50.5q-55 0 -120.5 -9.5t-169.5 -29.5l-7 276q106 20 184.5 28.5t174.5 8.5q262 0 394 -113.5t132 -312.5v-780h-311v109q-55 -63 -140 -106.5t-202 -43.5 q-172 0 -279.5 107.5t-107.5 271.5zM96 1339q-12 190 68.5 267t197.5 77q51 0 101.5 -15.5t95.5 -35t84 -34.5t67 -15q33 0 56.5 17.5t23.5 72.5l250 -8q8 -158 -58.5 -243t-201.5 -85q-51 0 -103.5 14.5t-98.5 32.5t-85 32.5t-67 14.5q-33 0 -57.5 -19.5t-22.5 -80.5z M379 346q0 -78 48 -134t130 -56q78 0 128 55t50 135q0 72 -48 125t-130 53t-130 -53t-48 -125z" />
<glyph unicode="&#xe4;" horiz-adv-x="1153" d="M31 338q0 78 28.5 148.5t82 121.5t131 81t173.5 30q90 0 163 -22.5t124 -61.5v55q0 141 -63.5 191.5t-186.5 50.5q-55 0 -120.5 -9.5t-169.5 -29.5l-7 276q106 20 184.5 28.5t174.5 8.5q262 0 394 -113.5t132 -312.5v-780h-311v109q-55 -63 -140 -106.5t-202 -43.5 q-172 0 -279.5 107.5t-107.5 271.5zM196 1331v248h285v-248h-285zM379 346q0 -78 48 -134t130 -56q78 0 128 55t50 135q0 72 -48 125t-130 53t-130 -53t-48 -125zM669 1331v248h285v-248h-285z" />
<glyph unicode="&#xe5;" horiz-adv-x="1153" d="M31 338q0 78 28.5 148.5t82 121.5t131 81t173.5 30q90 0 163 -22.5t124 -61.5v55q0 141 -63.5 191.5t-186.5 50.5q-55 0 -120.5 -9.5t-169.5 -29.5l-7 276q106 20 184.5 28.5t174.5 8.5q262 0 394 -113.5t132 -312.5v-780h-311v109q-55 -63 -140 -106.5t-202 -43.5 q-172 0 -279.5 107.5t-107.5 271.5zM288 1588q0 104 82 186t199 82t199 -81t82 -187t-82 -187.5t-199 -81.5t-199 82t-82 187zM379 346q0 -78 48 -134t130 -56q78 0 128 55t50 135q0 72 -48 125t-130 53t-130 -53t-48 -125zM446 1588q0 -51 36 -87t87 -36t87 35.5t36 87.5 q0 51 -36 86.5t-87 35.5t-87 -35.5t-36 -86.5z" />
<glyph unicode="&#xe6;" horiz-adv-x="2025" d="M31 332q0 78 28.5 148.5t82 123.5t131 84t173.5 31q86 0 155 -20.5t120 -53.5v45q0 141 -60.5 191.5t-183.5 50.5q-57 0 -118.5 -9.5t-165.5 -29.5l-7 276q106 20 179 28.5t172 8.5q137 0 236 -34.5t161 -98.5q80 76 186.5 118t231.5 42q135 0 252.5 -48t202.5 -134 t134.5 -206t49.5 -259v-88h-930q20 -137 112.5 -210t245.5 -73q125 0 214 38t157 99l190 -202q-94 -86 -233 -146.5t-334 -60.5q-168 0 -299 56t-219 153q-45 -78 -146.5 -143.5t-269.5 -65.5q-102 0 -185 29.5t-141.5 81.5t-90 124t-31.5 154zM377 340q0 -84 49 -141.5 t131 -57.5q80 0 132 55.5t52 143.5q0 74 -50 129t-134 55q-82 0 -131 -55t-49 -129zM1071 725h555q-27 109 -97 170t-179 61t-180.5 -61t-98.5 -170z" />
<glyph unicode="&#xe7;" horiz-adv-x="1083" d="M41 588q0 137 53 251.5t147.5 197.5t223.5 129t278 46q66 0 149 -12t128 -41v-303h-10q-47 41 -118 55.5t-140 14.5q-154 0 -255.5 -96.5t-101.5 -241.5q0 -147 101.5 -242.5t255.5 -95.5q70 0 140.5 15.5t117.5 53.5h10v-303q-43 -29 -127 -41t-150 -12 q-150 0 -278.5 46t-223 129t-147.5 198t-53 252zM451 -301h2q41 -12 84 -18.5t63 -6.5q49 0 79 16.5t30 45.5t-39 47t-103 18h-37l-6 17l60 172l129 -4l-29 -78q104 -10 164.5 -57.5t60.5 -125.5q0 -80 -77.5 -133t-206.5 -53q-35 0 -83 7t-91 22v131z" />
<glyph unicode="&#xe8;" horiz-adv-x="1366" d="M41 588q0 139 48 258t134 205t207 134t264 48q135 0 252 -48t202 -134t134 -206t49 -259v-88h-930q20 -137 112.5 -210t246.5 -73q125 0 215 39t158 98l190 -202q-96 -88 -235.5 -147.5t-331.5 -59.5q-166 0 -299 48t-225.5 134t-141.5 205t-49 258zM268 1632h396 l159 -301h-274zM412 725h557q-27 109 -98.5 170t-180.5 61q-106 0 -179 -61t-99 -170z" />
<glyph unicode="&#xe9;" horiz-adv-x="1366" d="M41 588q0 139 48 258t134 205t207 134t264 48q135 0 252 -48t202 -134t134 -206t49 -259v-88h-930q20 -137 112.5 -210t246.5 -73q125 0 215 39t158 98l190 -202q-96 -88 -235.5 -147.5t-331.5 -59.5q-166 0 -299 48t-225.5 134t-141.5 205t-49 258zM412 725h557 q-27 109 -98.5 170t-180.5 61q-106 0 -179 -61t-99 -170zM559 1331l158 301h389l-279 -301h-268z" />
<glyph unicode="&#xea;" horiz-adv-x="1366" d="M41 588q0 139 48 258t134 205t207 134t264 48q135 0 252 -48t202 -134t134 -206t49 -259v-88h-930q20 -137 112.5 -210t246.5 -73q125 0 215 39t158 98l190 -202q-96 -88 -235.5 -147.5t-331.5 -59.5q-166 0 -299 48t-225.5 134t-141.5 205t-49 258zM270 1331l256 301 h334l256 -301h-299l-125 153l-123 -153h-299zM412 725h557q-27 109 -98.5 170t-180.5 61q-106 0 -179 -61t-99 -170z" />
<glyph unicode="&#xeb;" horiz-adv-x="1366" d="M41 588q0 139 48 258t134 205t207 134t264 48q135 0 252 -48t202 -134t134 -206t49 -259v-88h-930q20 -137 112.5 -210t246.5 -73q125 0 215 39t158 98l190 -202q-96 -88 -235.5 -147.5t-331.5 -59.5q-166 0 -299 48t-225.5 134t-141.5 205t-49 258zM315 1331v248h285 v-248h-285zM412 725h557q-27 109 -98.5 170t-180.5 61q-106 0 -179 -61t-99 -170zM788 1331v248h285v-248h-285z" />
<glyph unicode="&#xec;" horiz-adv-x="507" d="M-172 1632h396l159 -301h-274zM84 0v1176h338v-1176h-338z" />
<glyph unicode="&#xed;" horiz-adv-x="507" d="M84 0v1176h338v-1176h-338zM121 1331l158 301h389l-279 -301h-268z" />
<glyph unicode="&#xee;" horiz-adv-x="507" d="M-170 1331l256 301h334l256 -301h-299l-125 153l-123 -153h-299zM84 0v1176h338v-1176h-338z" />
<glyph unicode="&#xef;" horiz-adv-x="507" d="M-125 1331v248h285v-248h-285zM84 0v1176h338v-1176h-338zM348 1331v248h285v-248h-285z" />
<glyph unicode="&#xf0;" horiz-adv-x="1454" d="M41 582q0 123 51 232.5t142.5 190t218.5 128t274 47.5q29 0 58.5 -2t56.5 -7q-31 33 -65 64t-68 59l-359 -86l-98 152l280 67q-66 45 -135 88.5t-139 81.5h483q33 -20 67 -42.5t66 -45.5l336 80l99 -149l-271 -66q166 -156 270.5 -348t104.5 -395v-31q0 -139 -52 -259 t-144.5 -207t-218.5 -137t-271 -50t-271 50t-218.5 135t-144.5 202t-52 248zM393 588q0 -72 25.5 -135.5t69.5 -109.5t105.5 -73.5t133.5 -27.5t132.5 27.5t104.5 73.5t69.5 109.5t25.5 135.5q0 70 -25.5 133t-69.5 110.5t-104.5 75t-132.5 27.5t-133.5 -27.5t-105.5 -75 t-69.5 -111t-25.5 -132.5z" />
<glyph unicode="&#xf1;" d="M82 0v1176h321v-144q53 63 151.5 118.5t233.5 55.5q90 0 168 -30.5t134.5 -86t88 -137.5t31.5 -182v-770h-340v668q0 129 -64.5 184t-156.5 55q-39 0 -80 -15t-74.5 -43t-54 -69t-20.5 -92v-688h-338zM162 1339q-12 190 68.5 267t197.5 77q51 0 101.5 -15.5t95.5 -35 t84 -34.5t67 -15q33 0 56.5 17.5t23.5 72.5l250 -8q8 -158 -58.5 -243t-201.5 -85q-51 0 -103.5 14.5t-98.5 32.5t-85 32.5t-67 14.5q-33 0 -57.5 -19.5t-22.5 -80.5z" />
<glyph unicode="&#xf2;" horiz-adv-x="1464" d="M41 588q0 135 52 252.5t144.5 205t219.5 137.5t274 50t275.5 -50t220.5 -137.5t144 -205t52 -252.5t-52 -253t-144 -205t-220 -137t-276 -50q-147 0 -274 50t-219.5 137t-144.5 205t-52 253zM305 1632h396l159 -301h-274zM395 588q0 -147 96.5 -251t239.5 -104 q145 0 241.5 103.5t96.5 251.5q0 147 -96.5 250.5t-241.5 103.5q-143 0 -239.5 -103.5t-96.5 -250.5z" />
<glyph unicode="&#xf3;" horiz-adv-x="1464" d="M41 588q0 135 52 252.5t144.5 205t219.5 137.5t274 50t275.5 -50t220.5 -137.5t144 -205t52 -252.5t-52 -253t-144 -205t-220 -137t-276 -50q-147 0 -274 50t-219.5 137t-144.5 205t-52 253zM395 588q0 -147 96.5 -251t239.5 -104q145 0 241.5 103.5t96.5 251.5 q0 147 -96.5 250.5t-241.5 103.5q-143 0 -239.5 -103.5t-96.5 -250.5zM598 1331l158 301h389l-279 -301h-268z" />
<glyph unicode="&#xf4;" horiz-adv-x="1464" d="M41 588q0 135 52 252.5t144.5 205t219.5 137.5t274 50t275.5 -50t220.5 -137.5t144 -205t52 -252.5t-52 -253t-144 -205t-220 -137t-276 -50q-147 0 -274 50t-219.5 137t-144.5 205t-52 253zM307 1331l256 301h334l256 -301h-299l-125 153l-123 -153h-299zM395 588 q0 -147 96.5 -251t239.5 -104q145 0 241.5 103.5t96.5 251.5q0 147 -96.5 250.5t-241.5 103.5q-143 0 -239.5 -103.5t-96.5 -250.5z" />
<glyph unicode="&#xf5;" horiz-adv-x="1464" d="M41 588q0 135 52 252.5t144.5 205t219.5 137.5t274 50t275.5 -50t220.5 -137.5t144 -205t52 -252.5t-52 -253t-144 -205t-220 -137t-276 -50q-147 0 -274 50t-219.5 137t-144.5 205t-52 253zM258 1339q-12 190 68.5 267t197.5 77q51 0 101.5 -15.5t95.5 -35t84 -34.5 t67 -15q33 0 56.5 17.5t23.5 72.5l250 -8q8 -158 -58.5 -243t-201.5 -85q-51 0 -103.5 14.5t-98.5 32.5t-85 32.5t-67 14.5q-33 0 -57.5 -19.5t-22.5 -80.5zM395 588q0 -147 96.5 -251t239.5 -104q145 0 241.5 103.5t96.5 251.5q0 147 -96.5 250.5t-241.5 103.5 q-143 0 -239.5 -103.5t-96.5 -250.5z" />
<glyph unicode="&#xf6;" horiz-adv-x="1464" d="M41 588q0 135 52 252.5t144.5 205t219.5 137.5t274 50t275.5 -50t220.5 -137.5t144 -205t52 -252.5t-52 -253t-144 -205t-220 -137t-276 -50q-147 0 -274 50t-219.5 137t-144.5 205t-52 253zM352 1331v248h285v-248h-285zM395 588q0 -147 96.5 -251t239.5 -104 q145 0 241.5 103.5t96.5 251.5q0 147 -96.5 250.5t-241.5 103.5q-143 0 -239.5 -103.5t-96.5 -250.5zM825 1331v248h285v-248h-285z" />
<glyph unicode="&#xf7;" horiz-adv-x="1228" d="M70 582v268h1089v-268h-1089zM461 125v301h307v-301h-307zM461 1006v301h307v-301h-307z" />
<glyph unicode="&#xf8;" horiz-adv-x="1454" d="M41 588q0 135 52 252.5t144.5 205t219.5 137.5t274 50q47 0 93 -6t91 -15l35 62h334l-106 -187q113 -88 179 -218t66 -281q0 -135 -52 -253t-144 -205t-220.5 -137t-275.5 -50q-51 0 -99 6t-93 18l-37 -65h-334l111 192q-111 88 -174.5 217t-63.5 277zM395 588 q0 -53 13.5 -103.5t40.5 -91.5l311 547q-6 2 -13.5 2h-15.5q-143 0 -239.5 -103.5t-96.5 -250.5zM692 236q8 -2 19.5 -2.5t19.5 -0.5q145 0 241.5 103.5t96.5 251.5q0 57 -16.5 109.5t-42.5 95.5z" />
<glyph unicode="&#xf9;" d="M80 406v770h338v-668q0 -129 64.5 -184.5t156.5 -55.5q41 0 82 15.5t73.5 43t53 68.5t20.5 92v689h338v-1176h-321v143q-53 -63 -151.5 -118.5t-233.5 -55.5q-180 0 -300 117t-120 320zM215 1632h396l159 -301h-274z" />
<glyph unicode="&#xfa;" d="M80 406v770h338v-668q0 -129 64.5 -184.5t156.5 -55.5q41 0 82 15.5t73.5 43t53 68.5t20.5 92v689h338v-1176h-321v143q-53 -63 -151.5 -118.5t-233.5 -55.5q-180 0 -300 117t-120 320zM508 1331l158 301h389l-279 -301h-268z" />
<glyph unicode="&#xfb;" d="M80 406v770h338v-668q0 -129 64.5 -184.5t156.5 -55.5q41 0 82 15.5t73.5 43t53 68.5t20.5 92v689h338v-1176h-321v143q-53 -63 -151.5 -118.5t-233.5 -55.5q-180 0 -300 117t-120 320zM219 1331l256 301h334l256 -301h-299l-125 153l-123 -153h-299z" />
<glyph unicode="&#xfc;" d="M80 406v770h338v-668q0 -129 64.5 -184.5t156.5 -55.5q41 0 82 15.5t73.5 43t53 68.5t20.5 92v689h338v-1176h-321v143q-53 -63 -151.5 -118.5t-233.5 -55.5q-180 0 -300 117t-120 320zM262 1331v248h285v-248h-285zM735 1331v248h285v-248h-285z" />
<glyph unicode="&#xfd;" horiz-adv-x="1343" d="M-2 1176h383l324 -814l288 814h353l-611 -1627h-348l152 420zM549 1331l158 301h389l-279 -301h-268z" />
<glyph unicode="&#xfe;" horiz-adv-x="1466" d="M82 -451v2048h338v-571q76 88 187.5 138t244.5 50q121 0 226.5 -48t182 -133t120.5 -199.5t44 -245.5t-44 -246t-120.5 -200t-182 -133t-226.5 -48q-131 0 -242.5 51t-189.5 140v-603h-338zM410 588q0 -68 25.5 -129.5t70.5 -106.5t106.5 -71.5t130.5 -26.5 q141 0 234.5 99.5t93.5 236.5q0 68 -24.5 128t-68.5 105t-104.5 72t-130.5 27t-131 -27t-106 -73t-70.5 -106t-25.5 -128z" />
<glyph unicode="&#xff;" horiz-adv-x="1343" d="M-2 1176h383l324 -814l288 814h353l-611 -1627h-348l152 420zM303 1331v248h285v-248h-285zM776 1331v248h285v-248h-285z" />
<glyph unicode="&#x152;" horiz-adv-x="2007" d="M55 766q0 199 74 344t195.5 237.5t280.5 136.5t329 44h962v-322h-518v-280h467v-293h-467v-311h535v-322h-983q-172 0 -331 44t-278.5 136t-192.5 237.5t-73 348.5zM422 766q0 -109 41 -191.5t108.5 -137t156.5 -81t185 -26.5h113v868h-113q-96 0 -185 -26.5t-156.5 -81 t-108.5 -135.5t-41 -189z" />
<glyph unicode="&#x153;" horiz-adv-x="2396" d="M41 588q0 135 52 252.5t144.5 205t219.5 137.5t274 50q154 0 284 -56.5t222 -152.5q84 98 209 153.5t276 55.5q135 0 253 -48t203 -134t134 -206t49 -259v-88h-929q20 -137 112 -210t246 -73q125 0 214 38t157 99l192 -202q-96 -86 -235.5 -146.5t-333.5 -60.5 q-176 0 -314.5 56t-228.5 157q-92 -98 -223 -155.5t-287 -57.5q-147 0 -274 50t-219.5 137t-144.5 205t-52 253zM395 588q0 -147 96.5 -251t239.5 -104q74 0 136.5 28t106.5 76t69.5 113.5t25.5 137.5q0 147 -96.5 250.5t-241.5 103.5q-143 0 -239.5 -103.5t-96.5 -250.5z M1442 725h555q-27 109 -97.5 170t-179.5 61t-180.5 -61t-97.5 -170z" />
<glyph unicode="&#x178;" horiz-adv-x="1433" d="M4 1528h397l320 -705l340 705h369l-531 -1043v-485h-364v481zM340 1652v248h285v-248h-285zM813 1652v248h285v-248h-285z" />
<glyph unicode="&#x2c6;" horiz-adv-x="1024" d="M84 1317l256 301h334l256 -301h-299l-125 153l-123 -153h-299z" />
<glyph unicode="&#x2dc;" horiz-adv-x="1024" d="M39 1323q-12 190 68.5 267t197.5 77q51 0 101.5 -15.5t95.5 -35t84 -34.5t67 -15q33 0 56.5 17.5t23.5 72.5l250 -8q8 -158 -58.5 -243t-201.5 -85q-51 0 -103.5 14.5t-98.5 32.5t-85 32.5t-67 14.5q-33 0 -57.5 -19.5t-22.5 -80.5z" />
<glyph unicode="&#x2000;" horiz-adv-x="1003" />
<glyph unicode="&#x2001;" horiz-adv-x="2007" />
<glyph unicode="&#x2002;" horiz-adv-x="1003" />
<glyph unicode="&#x2003;" horiz-adv-x="2007" />
<glyph unicode="&#x2004;" horiz-adv-x="669" />
<glyph unicode="&#x2005;" horiz-adv-x="501" />
<glyph unicode="&#x2006;" horiz-adv-x="334" />
<glyph unicode="&#x2007;" horiz-adv-x="334" />
<glyph unicode="&#x2008;" horiz-adv-x="250" />
<glyph unicode="&#x2009;" horiz-adv-x="401" />
<glyph unicode="&#x200a;" horiz-adv-x="111" />
<glyph unicode="&#x2010;" horiz-adv-x="827" d="M82 498v305h663v-305h-663z" />
<glyph unicode="&#x2011;" horiz-adv-x="827" d="M82 498v305h663v-305h-663z" />
<glyph unicode="&#x2012;" horiz-adv-x="827" d="M82 498v305h663v-305h-663z" />
<glyph unicode="&#x2013;" horiz-adv-x="1073" d="M61 520v260h951v-260h-951z" />
<glyph unicode="&#x2014;" horiz-adv-x="1482" d="M61 520v260h1360v-260h-1360z" />
<glyph unicode="&#x2018;" horiz-adv-x="698" d="M94 899l254 629h260l-139 -629h-375z" />
<glyph unicode="&#x2019;" horiz-adv-x="692" d="M100 899l140 629h374l-252 -629h-262z" />
<glyph unicode="&#x201a;" horiz-adv-x="696" d="M61 -629l140 629h374l-252 -629h-262z" />
<glyph unicode="&#x201c;" horiz-adv-x="1175" d="M94 899l254 629h260l-139 -629h-375zM571 899l254 629h260l-139 -629h-375z" />
<glyph unicode="&#x201d;" horiz-adv-x="1167" d="M98 899l140 629h374l-252 -629h-262zM579 899l140 629h374l-252 -629h-262z" />
<glyph unicode="&#x201e;" horiz-adv-x="1179" d="M61 -629l140 629h374l-252 -629h-262zM542 -629l140 629h374l-252 -629h-262z" />
<glyph unicode="&#x2022;" horiz-adv-x="591" d="M100 479v338h392v-338h-392z" />
<glyph unicode="&#x2026;" horiz-adv-x="1703" d="M98 0v334h381v-334h-381zM661 0v334h381v-334h-381zM1224 0v334h381v-334h-381z" />
<glyph unicode="&#x202f;" horiz-adv-x="401" />
<glyph unicode="&#x2039;" horiz-adv-x="835" d="M84 584v6l379 586h285l-381 -584l378 -592h-282z" />
<glyph unicode="&#x203a;" horiz-adv-x="835" d="M90 0l379 592l-379 584h283l379 -586v-6l-379 -584h-283z" />
<glyph unicode="&#x205f;" horiz-adv-x="501" />
<glyph unicode="&#x20ac;" horiz-adv-x="1269" d="M12 532l35 164h141q-2 16 -2 35v35v24.5t2 24.5h-176l35 166h164q31 127 96.5 234.5t157.5 185.5t212 122t257 44q72 0 138.5 -11.5t127.5 -42.5v-307q-51 31 -104.5 47.5t-112.5 16.5q-137 0 -245.5 -81t-159.5 -208h514l-37 -166h-516q-2 -12 -2 -23.5v-23.5 q0 -18 1 -36.5t3 -35.5h489l-37 -164h-407q53 -121 158.5 -197.5t238.5 -76.5q59 0 112.5 16.5t104.5 49.5v-312q-59 -29 -126.5 -40t-139.5 -11q-135 0 -253 43t-210 119t-157.5 181.5t-98.5 227.5h-203z" />
<glyph unicode="&#x2122;" horiz-adv-x="1376" d="M29 1358v170h432v-170h-123v-453h-186v453h-123zM541 905v623h202l164 -258l160 258h199v-623h-183v348l-159 -237h-41l-162 241v-352h-180z" />
<glyph unicode="&#x25fc;" horiz-adv-x="1177" d="M0 0v1178h1178v-1178h-1178z" />
</font>
</defs>
</svg>
